<?xml version="1.0" standalone="no"?>
<!DOCTYPE svg PUBLIC "-//W3C//DTD SVG 1.1//EN" "http://www.w3.org/Graphics/SVG/1.1/DTD/svg11.dtd" >
<svg xmlns="http://www.w3.org/2000/svg">
<metadata></metadata>
<defs>
<font id="gobclbold" horiz-adv-x="1171" >
<font-face units-per-em="2048" ascent="1536" descent="-512" />
<missing-glyph horiz-adv-x="450" />
<glyph horiz-adv-x="2048" />
<glyph horiz-adv-x="2048" />
<glyph unicode="&#xd;" horiz-adv-x="2048" />
<glyph unicode=" "  horiz-adv-x="450" />
<glyph unicode="&#x09;" horiz-adv-x="450" />
<glyph unicode="&#xa0;" horiz-adv-x="450" />
<glyph unicode="!" horiz-adv-x="579" d="M424 930l-39 -484h-190l-39 484v483h268v-483zM156 0v285h262v-285h-262z" />
<glyph unicode="&#x22;" horiz-adv-x="751" d="M338 1413l-33 -629h-192l-27 629h252zM664 1413l-31 -629h-193l-26 629h250z" />
<glyph unicode="#" d="M987 371h-211l-45 -236h-164l45 236h-157l-43 -236h-164l45 236h-109v198h146q6 27 16 82.5t16 83.5h-178v197h215l52 264h163l-51 -264h156l51 264h164l-51 -264h104v-197h-141q-6 -27 -16.5 -83t-16.5 -83h174v-198zM524 735l-30 -166h155q6 27 16.5 83t16.5 83h-158z " />
<glyph unicode="$" horiz-adv-x="1007" d="M639 -20h-248q0 16 2 95t2 95q-142 12 -239 72l53 186q41 -27 107.5 -48.5t129.5 -21.5q70 0 110 30t40 81q0 36 -23.5 64t-61.5 47t-83.5 38t-91 44.5t-83.5 58.5t-61.5 87t-23.5 124q0 93 56 163.5t169 96.5q0 19 -3 110.5t-3 108.5h250l-8 -203q126 -10 207 -45 q-3 -12 -18.5 -97t-18.5 -97q-112 51 -244 51q-65 0 -101 -26t-36 -66q0 -31 24 -55.5t62 -42t84.5 -35.5t93 -43t84.5 -57t62 -84t24 -119q0 -103 -57 -182.5t-162 -114.5z" />
<glyph unicode="%" horiz-adv-x="1968" d="M86 954q0 227 95 342t268 115q180 0 277 -114.5t97 -342.5q0 -227 -98.5 -336.5t-275.5 -109.5q-171 0 -267 109.5t-96 336.5zM344 954q0 -146 26 -210t79 -64q61 0 88.5 63t27.5 211q0 160 -26.5 222.5t-89.5 62.5q-55 0 -80 -63.5t-25 -221.5zM1145 426q0 226 95 341.5 t267 115.5q180 0 277.5 -114.5t97.5 -342.5q0 -227 -99 -336.5t-276 -109.5q-171 0 -266.5 109.5t-95.5 336.5zM1403 426q0 -147 25.5 -210.5t78.5 -63.5q61 0 89 63t28 211q0 159 -27 222t-90 63q-55 0 -79.5 -63.5t-24.5 -221.5zM1276 1460l-500 -1552h-94l500 1552h94z " />
<glyph unicode="&#x26;" horiz-adv-x="1286" d="M911 1118q0 -56 -16 -105t-38 -83.5t-61.5 -70.5t-71 -57.5t-81.5 -53.5l236 -304q51 102 90 271l237 -62q-47 -245 -170 -413l187 -240h-312l-57 72q-136 -92 -309 -92q-71 0 -137.5 14.5t-128 47.5t-107 81.5t-73 121.5t-27.5 163q0 131 63 220.5t174 162.5l-16 24 q-109 149 -109 289q0 98 52.5 169.5t135 105.5t183.5 34q160 0 258 -77t98 -218zM565 197q84 0 152 55l-271 356q-100 -86 -100 -192q0 -105 63 -162t156 -57zM434 1092q0 -77 62 -152l22 -31q78 44 119 85.5t41 95.5q0 64 -32 97.5t-91 33.5q-53 0 -87 -34.5t-34 -94.5z " />
<glyph unicode="'" horiz-adv-x="423" d="M338 1413l-33 -629h-192l-27 629h252z" />
<glyph unicode="(" horiz-adv-x="638" d="M84 698q0 226 105 446t270 355l135 -139q-114 -106 -176 -287.5t-62 -374.5q0 -195 62 -376t178 -287l-137 -139q-165 135 -270 355t-105 447z" />
<glyph unicode=")" horiz-adv-x="638" d="M555 698q0 -227 -106 -447t-271 -355l-135 139q114 106 176 287.5t62 375.5q0 193 -62 374.5t-176 287.5l135 139q165 -135 271 -355t106 -446z" />
<glyph unicode="*" horiz-adv-x="987" d="M903 1032l-231 -74l143 -200l-178 -127l-143 198l-144 -198l-178 127l145 198l-233 76l68 207l233 -76v244h217v-244l236 76z" />
<glyph unicode="+" horiz-adv-x="1011" d="M879 496h-285v-291h-191v291h-270v178h270v278h191v-278h285v-178z" />
<glyph unicode="," horiz-adv-x="462" d="M96 31v258h271v-305q0 -125 -68.5 -187t-202.5 -76v140q64 14 64 139z" />
<glyph unicode="-" horiz-adv-x="1003" d="M860 467h-717v170h717v-170z" />
<glyph unicode="." horiz-adv-x="448" d="M88 0v289h270v-289h-270z" />
<glyph unicode="/" horiz-adv-x="614" d="M604 1460l-500 -1552h-94l500 1552h94z" />
<glyph unicode="0" d="M582 -20q-117 0 -205 36.5t-143 99t-88.5 156.5t-46.5 196.5t-13 231.5q0 124 14 226t49 195t90 155.5t142 99.5t201 37q118 0 207.5 -38t144.5 -101.5t89 -157.5t47 -193.5t13 -222.5q0 -126 -14 -229.5t-49.5 -196.5t-91 -156.5t-143.5 -100.5t-203 -37zM582 195 q125 0 174 125t49 380q0 250 -51 373t-172 123q-120 0 -168.5 -123t-48.5 -373q0 -254 48.5 -379.5t168.5 -125.5z" />
<glyph unicode="1" d="M1044 0h-786v203h268v692q0 87 11 197q-51 -65 -148.5 -112t-185.5 -60l-33 210q129 32 238.5 101.5t177.5 161.5h207v-1190h251v-203z" />
<glyph unicode="2" d="M492 1194q-157 0 -293 -68l-76 199q195 88 412 88q220 0 361.5 -107.5t141.5 -291.5q0 -118 -52.5 -230t-187.5 -254t-368 -323q82 16 201 16h413v-223h-911v201q191 153 320.5 277.5t194 217t89.5 158t25 127.5q0 104 -71.5 158.5t-198.5 54.5z" />
<glyph unicode="3" d="M717 1016q0 87 -62 132.5t-170 45.5q-68 0 -145 -19t-131 -47l-76 199q187 86 408 86q202 0 329 -97.5t127 -246.5q0 -138 -80 -228.5t-186 -115.5v-10q62 -6 116.5 -28.5t98.5 -60t70 -97t26 -132.5q0 -120 -70.5 -217t-184.5 -148.5t-246 -51.5q-214 0 -410 98l62 211 q54 -32 147 -60t170 -28q113 0 185.5 56.5t72.5 160.5q0 182 -266 182h-86v209h63q115 0 176.5 58t61.5 149z" />
<glyph unicode="4" d="M1075 336h-160v-336h-266v336h-563v168l559 889h270v-838h160v-219zM324 555h325v510z" />
<glyph unicode="5" d="M1049 498q0 -118 -44.5 -217.5t-117.5 -164t-165 -100.5t-190 -36q-225 0 -413 98l63 209q55 -31 148.5 -58.5t171.5 -27.5q122 0 195 72t73 206q0 120 -60.5 182t-166.5 62q-113 0 -205 -92l-199 59v703h797l-18 -219h-517v-211q0 -86 -18 -138q109 113 276 113 q76 0 145 -27.5t124.5 -80.5t88 -138.5t32.5 -193.5z" />
<glyph unicode="6" d="M672 1204q-264 0 -318 -420q54 81 140.5 119.5t187.5 38.5q176 0 285.5 -122t109.5 -326q0 -142 -57.5 -258t-170 -186t-259.5 -70q-111 0 -200.5 44t-156.5 132.5t-104 233t-37 335.5q0 165 45 298t123 217t178.5 128.5t214.5 44.5q175 0 324 -49l-45 -207 q-115 47 -260 47zM596 733q-84 0 -148.5 -44t-87.5 -118q17 -197 77 -290t153 -93q105 0 160 77t55 210q0 122 -54 190t-155 68z" />
<glyph unicode="7" d="M1047 1165l-580 -1165h-303l602 1165h-639v228h920v-228z" />
<glyph unicode="8" d="M1038 1065q0 -186 -243 -307q61 -26 105.5 -53.5t86 -69t63 -100t21.5 -132.5q0 -86 -33 -162.5t-94 -134.5t-155 -92t-209 -34q-218 0 -349 113.5t-131 291.5q0 108 73 188t198 127q-54 27 -93.5 56.5t-74.5 71.5t-53.5 98.5t-18.5 126.5q0 116 64 199.5t163.5 122 t221.5 38.5q126 0 229.5 -42t166 -122t62.5 -184zM797 403q0 22 -5.5 42t-12.5 35.5t-23.5 32l-27 27t-36.5 24.5t-38.5 20.5t-45.5 20t-45 18t-49 18.5q-143 -106 -143 -238q0 -108 63.5 -167.5t145.5 -59.5q91 0 154 58.5t63 168.5zM397 1051q0 -48 19.5 -86t60 -66.5 t78 -46.5t98.5 -41q117 102 117 231q0 81 -55 124.5t-135 43.5q-74 0 -128.5 -43t-54.5 -116z" />
<glyph unicode="9" d="M528 467q-189 0 -312.5 123.5t-123.5 341.5t133 349.5t350 131.5q240 0 372 -166.5t132 -503.5q0 -385 -140 -574t-398 -189q-218 0 -398 88l62 217q157 -90 309 -90q62 0 111 18.5t91 62t67.5 123t31.5 193.5q-125 -125 -287 -125zM578 1202q-104 0 -158.5 -70.5 t-54.5 -191.5q0 -127 59 -188.5t166 -61.5q116 0 233 88q-3 210 -60.5 317t-184.5 107z" />
<glyph unicode=":" horiz-adv-x="462" d="M96 0v289h271v-289h-271zM96 713v291h271v-291h-271z" />
<glyph unicode=";" horiz-adv-x="462" d="M96 713v291h271v-291h-271zM96 31v258h271v-305q0 -125 -68.5 -187t-202.5 -76v140q64 14 64 139z" />
<glyph unicode="&#x3c;" horiz-adv-x="819" d="M61 784l697 297v-290l-535 -199v-8l535 -195v-280l-697 284v391z" />
<glyph unicode="=" horiz-adv-x="1001" d="M874 676h-747v196h747v-196zM874 307h-747v199h747v-199z" />
<glyph unicode="&#x3e;" horiz-adv-x="819" d="M61 1081l697 -297v-391l-697 -284v280l533 195v8l-533 199v290z" />
<glyph unicode="?" horiz-adv-x="907" d="M850 1040q0 -67 -18 -125t-46.5 -100t-63 -79.5t-69 -70.5t-63 -65.5t-46.5 -71.5t-18 -82v-38h-243v59q0 60 17 110.5t44 86t59.5 66.5t65.5 60t60 59t44 70.5t17 88.5q0 96 -59.5 142t-151.5 46q-122 0 -252 -70l-72 205q174 82 371 82q183 0 303.5 -102t120.5 -271z M272 0v285h263v-285h-263z" />
<glyph unicode="@" horiz-adv-x="2048" d="M1065 -6l14 117q-110 -131 -268 -131q-55 0 -105 24.5t-93 74t-68 136t-25 199.5q0 124 38.5 232t102 181t147 114.5t173.5 41.5q151 0 233 -111l43 91h179l-109 -961q26 -8 55 -8q67 0 134 35.5t122.5 100t90 165.5t34.5 221q0 302 -196 493t-518 191q-160 0 -302 -59.5 t-243 -161t-160 -243.5t-59 -302q0 -313 188 -538h-170q-166 256 -166 538q0 189 71 358t192 290.5t290 192.5t359 71q191 0 352 -62t273 -171.5t174.5 -263.5t62.5 -333q0 -120 -33 -226t-89 -183t-128.5 -133.5t-152.5 -84.5t-160 -28q-98 0 -178.5 39.5t-104.5 93.5z M946 174q72 0 150 64l61 501q-46 43 -125 43q-95 0 -167 -94.5t-72 -275.5q0 -124 41.5 -181t111.5 -57z" />
<glyph unicode="A" horiz-adv-x="1236" d="M362 311l-73 -311h-262l374 1382h447l362 -1382h-301l-71 311h-476zM647 1147h-84l-151 -619h376z" />
<glyph unicode="B" horiz-adv-x="1165" d="M1110 397q0 -187 -146.5 -302t-379.5 -115q-148 0 -246 18t-203 57v1327h418q224 0 353.5 -93.5t129.5 -262.5q0 -120 -62 -196.5t-161 -106.5v-10q131 -24 214 -108t83 -208zM754 999q0 164 -211 164h-140v-360h140q106 0 158.5 46t52.5 150zM827 410q0 194 -239 194 h-185v-373q90 -32 181 -32q106 0 174.5 53.5t68.5 157.5z" />
<glyph unicode="C" horiz-adv-x="1224" d="M1163 127q-214 -147 -475 -147q-291 0 -444.5 185.5t-153.5 532.5q0 328 154.5 516.5t443.5 188.5q297 0 471 -117l-102 -217q-56 43 -146 69.5t-194 26.5q-171 0 -257.5 -118.5t-86.5 -346.5q0 -239 85.5 -361t254.5 -122q96 0 192.5 35.5t171.5 91.5z" />
<glyph unicode="D" horiz-adv-x="1355" d="M1249 705q0 -346 -154.5 -535.5t-469.5 -189.5q-241 0 -492 73v1329h461q156 0 272.5 -34t204.5 -111t133 -210t45 -322zM965 707q0 250 -87 354t-294 104h-183v-932q94 -28 238 -28q57 0 103.5 14t89 49t71 90.5t45.5 144t17 204.5z" />
<glyph unicode="E" horiz-adv-x="1069" d="M985 0h-850v1382h850v-227h-582v-340h445l-21 -237h-424v-355h582v-223z" />
<glyph unicode="F" horiz-adv-x="1040" d="M985 1155h-582v-379h445l-21 -237h-424v-539h-268v1382h850v-227z" />
<glyph unicode="G" horiz-adv-x="1310" d="M1212 707v-605q-142 -64 -258 -93t-241 -29q-202 0 -343.5 90.5t-210.5 252t-69 382.5q0 159 40 286.5t118.5 219.5t201 142t281.5 50q267 0 455 -121l-113 -205q-130 88 -338 88q-182 0 -272 -121.5t-90 -334.5q0 -246 90 -373t268 -127q142 0 234 43v256h-189l-16 199 h452z" />
<glyph unicode="H" horiz-adv-x="1325" d="M1190 0h-272v573h-512v-573h-271v1382h271v-565h512v565h272v-1382z" />
<glyph unicode="I" horiz-adv-x="600" d="M434 0h-268v1382h268v-1382z" />
<glyph unicode="J" horiz-adv-x="878" d="M731 1382v-966q0 -206 -94.5 -321t-267.5 -115q-176 0 -316 59l47 233q116 -55 222 -55q139 0 139 168v997h270z" />
<glyph unicode="K" horiz-adv-x="1167" d="M1163 0h-350l-432 594l20 -283v-311h-268v1382h268v-342l-20 -256l420 598h321l-508 -665z" />
<glyph unicode="L" horiz-adv-x="1015" d="M993 0h-850v1382h269v-1157h581v-225z" />
<glyph unicode="M" horiz-adv-x="1748" d="M1638 0h-303l-28 1167h-9q-25 -144 -67 -333l-197 -834h-395l-188 834q-48 214 -70 333h-8l-19 -1167h-245l53 1382h461q151 -697 231 -1142h6q41 197 109 482.5t116 472.5l48 187h452z" />
<glyph unicode="N" horiz-adv-x="1359" d="M1223 0h-424l-430 1087h-9l19 -1087h-242v1382h412l436 -1110h8l-18 1110h248v-1382z" />
<glyph unicode="O" horiz-adv-x="1359" d="M1270 702q0 -117 -17.5 -218t-60 -195.5t-108.5 -161.5t-169.5 -107t-236.5 -40t-236 39.5t-168.5 105.5t-107.5 160.5t-59 196t-17 220.5q0 115 16.5 212.5t58 190t107 157t169 103t237.5 38.5q592 0 592 -701zM985 705q0 466 -307 466q-305 0 -305 -466q0 -87 8 -157.5 t29 -136t55 -110t88 -70.5t125 -26q307 0 307 500z" />
<glyph unicode="P" horiz-adv-x="1112" d="M1073 950q0 -204 -143 -336.5t-383 -132.5h-152v-481h-268v1382h420q108 0 201.5 -26.5t167 -78t115.5 -135.5t42 -192zM788 940q0 104 -65 159.5t-182 55.5h-146v-463h146q117 0 182 66.5t65 181.5z" />
<glyph unicode="Q" horiz-adv-x="1355" d="M1268 702q0 -138 -44.5 -272t-136 -245.5t-213.5 -164.5q172 -30 435 -30v-260q-189 0 -352.5 70t-280.5 180q-132 0 -234.5 39t-168.5 105t-108 160t-59.5 196t-17.5 222q0 115 16.5 212.5t58 190t107 157t169 103t237.5 38.5q592 0 592 -701zM983 705q0 466 -307 466 q-305 0 -305 -466q0 -87 8 -157.5t29 -136t55 -110t88 -70.5t125 -26q307 0 307 500z" />
<glyph unicode="R" horiz-adv-x="1155" d="M401 520v-520h-266v1382h445q104 0 192 -24.5t156 -74t106.5 -130.5t38.5 -186q0 -136 -70.5 -239t-191.5 -159q48 -96 146.5 -284t146.5 -285h-316l-227 522q-61 -2 -160 -2zM786 969q0 112 -61 158.5t-188 46.5h-136v-443h136q130 0 189.5 59t59.5 179z" />
<glyph unicode="S" horiz-adv-x="1114" d="M1030 403q0 -83 -34 -158.5t-96 -135t-158 -94.5t-210 -35q-251 0 -450 147l102 211q63 -55 162 -94t191 -39q94 0 153.5 51.5t59.5 130.5q0 47 -22 83t-59 59.5t-85 43.5t-101 39t-105.5 41t-100.5 53.5t-85 72.5t-59 103t-22 140q0 165 127 273t360 108q232 0 412 -94 l-90 -215q-58 34 -145 54.5t-181 20.5q-207 0 -207 -143q0 -39 22 -70.5t59 -54t85.5 -42.5t101.5 -40t106.5 -43.5t102 -57t85.5 -75t59 -103.5t22 -137z" />
<glyph unicode="T" horiz-adv-x="1017" d="M987 1155h-344v-1155h-278v1155h-334v227h956v-227z" />
<glyph unicode="U" horiz-adv-x="1314" d="M1178 1382v-860q0 -111 -31 -207t-92 -172t-163 -119.5t-235 -43.5q-132 0 -233.5 42.5t-163 117.5t-92.5 171.5t-31 210.5v860h269v-841q0 -157 62.5 -245.5t188.5 -88.5q124 0 186 88.5t62 245.5v841h273z" />
<glyph unicode="V" horiz-adv-x="1239" d="M1225 1382l-404 -1382h-403l-404 1382h314l299 -1146h10l297 1146h291z" />
<glyph unicode="W" horiz-adv-x="1837" d="M1823 1382l-277 -1382h-403l-223 1057h-7l-231 -1057h-397l-271 1382h312l176 -1151h8l256 1151h342l244 -1151h12l182 1151h277z" />
<glyph unicode="X" horiz-adv-x="1224" d="M63 1382h330l242 -446l244 446h325l-440 -680l430 -702h-330l-264 455l-254 -455h-326l453 692z" />
<glyph unicode="Y" horiz-adv-x="1175" d="M1163 1382l-465 -901v-481h-270v483l-416 899h340l240 -622h10l268 622h293z" />
<glyph unicode="Z" horiz-adv-x="1193" d="M1090 1153l-674 -930h676v-223h-990v211l670 944h-668v227h986v-229z" />
<glyph unicode="[" horiz-adv-x="657" d="M616 -258h-454v1800h454v-242h-182v-1316h182v-242z" />
<glyph unicode="\" horiz-adv-x="614" d="M510 -92l-500 1552h94l500 -1552h-94z" />
<glyph unicode="]" horiz-adv-x="657" d="M496 -258h-455v242h180v1316h-180v242h455v-1800z" />
<glyph unicode="^" horiz-adv-x="1056" d="M926 1272l-86 -135l-314 161l-313 -161l-82 135l311 203l152 18z" />
<glyph unicode="_" horiz-adv-x="1372" d="M1260 0h-1147v180h1147v-180z" />
<glyph unicode="`" horiz-adv-x="1150" d="M883 1159l-527 103l35 196l518 -145z" />
<glyph unicode="a" horiz-adv-x="1034" d="M922 0h-183l-37 119q-43 -59 -118.5 -99t-173.5 -40q-151 0 -243.5 88t-92.5 233q0 140 99 218.5t280 78.5h211v51q0 170 -177 170q-153 0 -301 -67l-67 190q191 82 395 82q211 0 309.5 -96t98.5 -291v-637zM664 229v209h-166q-80 0 -121 -35t-41 -94q0 -70 37.5 -108.5 t111.5 -38.5q95 0 179 67z" />
<glyph unicode="b" horiz-adv-x="1122" d="M387 1063l-18 -162q36 49 111 86t155 37q184 0 294.5 -132.5t110.5 -387.5q0 -126 -35.5 -227.5t-96.5 -165t-139 -97.5t-167 -34q-188 0 -291 141l-49 -121h-143v1413h268v-350zM387 748v-469q33 -44 82 -73.5t100 -29.5q203 0 203 328q0 173 -51 248t-148 75 q-50 0 -100.5 -22t-85.5 -57z" />
<glyph unicode="c" horiz-adv-x="976" d="M870 258l50 -190q-59 -32 -151.5 -60t-193.5 -28q-229 0 -354 131.5t-125 390.5q0 245 127 383.5t350 138.5q202 0 345 -82l-70 -182q-102 61 -252 61q-227 0 -227 -319q0 -320 229 -320q136 0 272 76z" />
<glyph unicode="d" horiz-adv-x="1132" d="M520 1024q162 0 250 -98q-25 89 -25 184v303h267v-1413h-217l-31 111q-35 -52 -106 -91.5t-160 -39.5q-87 0 -160 32t-129.5 94.5t-88.5 163.5t-32 232q0 243 121.5 382.5t310.5 139.5zM745 260v514q-80 49 -182 49q-207 0 -207 -319q0 -174 52 -252t151 -78 q103 0 186 86z" />
<glyph unicode="e" horiz-adv-x="1056" d="M975 430h-625q0 -120 66 -184t192 -64q131 0 295 84l51 -188q-183 -98 -379 -98q-232 0 -362.5 138t-130.5 386q0 241 118.5 380.5t352.5 139.5q110 0 193 -38.5t132 -106t73 -151t24 -181.5v-117zM717 588q0 239 -178 239q-93 0 -141 -70t-48 -169h367z" />
<glyph unicode="f" horiz-adv-x="702" d="M748 1427l-19 -210q-56 16 -127 16q-70 0 -107.5 -40t-37.5 -118v-71h223v-193h-223v-811h-269v811h-147v193h147v83q0 178 100 269.5t296 91.5q74 0 164 -21z" />
<glyph unicode="g" horiz-adv-x="1083" d="M522 1024q51 0 234 -9.5t274 -10.5l-4 -199q-97 4 -188 35q91 -83 100 -158q0 -71 -27 -130t-70 -97.5t-98 -65.5t-110.5 -39t-108.5 -12q-52 0 -129 18q-49 -16 -49 -55q0 -22 35 -34t91.5 -19t124 -14.5t135.5 -26t124.5 -47.5t91.5 -84.5t35 -132.5 q0 -114 -67.5 -198.5t-174 -125.5t-235.5 -41q-109 0 -203.5 30t-157.5 94.5t-63 152.5q0 180 266 221q-250 28 -250 170q0 63 53 105t138 48q-180 99 -180 283q0 76 27.5 137t70.5 98.5t99.5 62.5t110 34.5t105.5 9.5zM719 -76q0 64 -56.5 94t-179.5 39q-71 -6 -112 -44.5 t-41 -102.5q0 -66 53 -109t135 -43q92 0 146.5 44.5t54.5 121.5zM522 526q74 0 126 36t52 122q0 56 -29.5 91.5t-67 47t-81.5 11.5t-82 -11.5t-68 -47t-30 -91.5q0 -45 16 -77.5t43 -49.5t56.5 -24t64.5 -7z" />
<glyph unicode="h" horiz-adv-x="1112" d="M387 0h-268v1413h268v-371q0 -85 -27 -155q108 137 289 137q106 0 178 -26.5t113 -80.5t58.5 -125t17.5 -171v-621h-273v598q0 221 -178 221q-95 0 -178 -61v-758z" />
<glyph unicode="i" horiz-adv-x="591" d="M469 0h-266v811l-117 25v168h383v-1004zM195 1169v244h270v-244h-270z" />
<glyph unicode="j" horiz-adv-x="610" d="M465 1004v-1018q0 -193 -79.5 -276t-225.5 -83q-89 0 -178 29l30 215q46 -16 90 -16q47 0 73 31t26 83v844l-117 27v164h381zM195 1169v244h270v-244h-270z" />
<glyph unicode="k" horiz-adv-x="1032" d="M1032 0h-323l-291 442h-33v-442h-266v1413h266v-553l-12 -242l305 386h319l-374 -420z" />
<glyph unicode="l" horiz-adv-x="602" d="M401 -20q-148 0 -213 73t-65 213v1147h264v-1132q0 -60 36 -78.5t126 -18.5v-188q-78 -16 -148 -16z" />
<glyph unicode="m" horiz-adv-x="1724" d="M997 758q11 -56 11 -137v-621h-271v596q0 115 -43.5 169t-136.5 54q-78 0 -170 -61v-758h-268v1004h180l45 -117q48 59 123.5 98t173.5 39q235 0 313 -141q50 60 128 100.5t175 40.5q106 0 179 -26.5t114.5 -80.5t59.5 -125.5t18 -170.5v-621h-272v596q0 223 -189 223 q-81 0 -170 -61z" />
<glyph unicode="n" horiz-adv-x="1114" d="M1016 0h-273v596q0 114 -44 168.5t-136 54.5q-84 0 -176 -61v-758h-268v1004h184l41 -115q48 57 130.5 96t187.5 39q185 0 269.5 -103t84.5 -300v-621z" />
<glyph unicode="o" horiz-adv-x="1101" d="M551 1024q148 0 256 -69t161.5 -185.5t53.5 -265.5q0 -255 -122.5 -389.5t-348.5 -134.5q-227 0 -349 134t-122 390q0 229 124 374.5t347 145.5zM551 176q101 0 149 76t48 252q0 175 -49.5 250t-147.5 75t-146.5 -75.5t-48.5 -249.5q0 -172 47.5 -250t147.5 -78z" />
<glyph unicode="p" horiz-adv-x="1120" d="M356 96q35 -110 35 -184v-301h-272v1393h231l21 -109q37 51 110.5 90t153.5 39q184 0 293.5 -132t109.5 -388q0 -126 -35.5 -227.5t-96.5 -165t-139 -97.5t-167 -34q-84 0 -139.5 27.5t-104.5 88.5zM391 745v-469q32 -45 78 -72.5t98 -27.5q203 0 203 328 q0 172 -50.5 247.5t-146.5 75.5q-50 0 -99 -23t-83 -59z" />
<glyph unicode="q" horiz-adv-x="1132" d="M745 260v504q-70 59 -178 59q-211 0 -211 -319q0 -174 52 -252t151 -78q103 0 186 86zM1012 -389h-267v362l19 136q-34 -52 -107 -90.5t-161 -38.5q-86 0 -159 32t-129 95t-88 164t-32 231q0 243 121.5 382.5t310.5 139.5q84 0 162.5 -28.5t122.5 -71.5l47 80h160v-1393z " />
<glyph unicode="r" horiz-adv-x="731" d="M696 1008l-6 -228q-56 17 -125 17q-97 0 -180 -68v-729h-266v1004h186l29 -136h6q26 60 91.5 107t148.5 47q62 0 116 -14z" />
<glyph unicode="s" horiz-adv-x="876" d="M489 831q-68 0 -102.5 -24t-34.5 -68q0 -31 24 -55.5t62 -42t84.5 -35.5t93 -43t84.5 -57t62 -84t24 -119q0 -142 -103.5 -232.5t-291.5 -90.5q-86 0 -166 20.5t-135 52.5l55 187q39 -27 106 -48.5t132 -21.5t106 32t41 79q0 36 -23.5 64t-61.5 47t-83.5 38t-91 44.5 t-83.5 58.5t-61.5 87t-23.5 123q0 120 96 200.5t287 80.5q165 0 283 -49l-37 -195q-112 51 -242 51z" />
<glyph unicode="t" horiz-adv-x="813" d="M762 47q-48 -28 -121.5 -47.5t-148.5 -19.5q-142 0 -218.5 77.5t-76.5 257.5v498h-150v191h150v174l264 86v-260h268v-191h-268v-491q0 -54 26.5 -84.5t79.5 -30.5q78 0 154 37z" />
<glyph unicode="u" horiz-adv-x="1099" d="M997 0h-176l-41 123q-43 -56 -124 -99.5t-189 -43.5q-186 0 -275.5 103t-89.5 312v609h267v-611q0 -114 42 -161.5t134 -47.5q95 0 180 60v760h272v-1004z" />
<glyph unicode="v" horiz-adv-x="1028" d="M1014 1004l-307 -1004h-392l-301 1004h301l211 -842h9l208 842h271z" />
<glyph unicode="w" horiz-adv-x="1581" d="M1565 1004l-240 -1004h-375l-164 756l-204 -756h-357l-211 1004h295l119 -799h8l211 799h316l188 -799h6l148 799h260z" />
<glyph unicode="x" horiz-adv-x="1017" d="M655 0l-168 317l-176 -317h-288l348 528l-328 476h354l144 -287l141 287h291l-311 -506l333 -498h-340z" />
<glyph unicode="y" horiz-adv-x="1040" d="M496 -6l8 29l-187 -33l-299 1014h301l213 -842h5l215 842h266l-309 -1029q-63 -210 -170.5 -302.5t-268.5 -92.5q-77 0 -160 33.5t-122 67.5l84 182h24q96 -72 187 -72q155 0 213 203z" />
<glyph unicode="z" horiz-adv-x="968" d="M885 831l-457 -638h459v-193h-803v154l481 657h-483v193h803v-173z" />
<glyph unicode="{" horiz-adv-x="796" d="M762 -45l-64 -166q-211 83 -307 199t-96 286v197q-56 29 -223 113v168l223 98v203q0 161 97 274t306 195l64 -166q-104 -50 -149.5 -123t-45.5 -193v-116l-55 -195l-150 -65q146 -71 205 -97v-299q0 -122 46.5 -195t148.5 -118z" />
<glyph unicode="|" horiz-adv-x="614" d="M362 -344l-110 -2v1841h110v-1839z" />
<glyph unicode="}" horiz-adv-x="796" d="M723 584l-225 -113v-217q0 -161 -96 -272t-304 -193l-65 166q102 44 148 118t46 195v299l156 74q9 6 26.5 14.5t24.5 12.5l-207 86v286q0 122 -45 194t-149 122l65 166q201 -79 300.5 -188.5t99.5 -258.5v-225l225 -98v-168z" />
<glyph unicode="~" horiz-adv-x="1093" d="M965 647q-37 -123 -104 -174.5t-175 -23.5l-268 71q-101 27 -144 -61l-143 59q38 108 116.5 162t186.5 25l254 -70q100 -25 137 63z" />
<glyph unicode="&#xa1;" horiz-adv-x="579" d="M156 70l39 483h190l39 -483v-482h-268v482zM422 1001v-286h-262v286h262z" />
<glyph unicode="&#xa3;" horiz-adv-x="997" d="M764 600h-256v-59q-1 -4 -12 -127l-7 -74l54 10q92 27 192 27h148v-221h-777v221h134v223h-134v166h134v96q0 179 98.5 270t310.5 91q110 0 223 -37l-32 -197q-92 21 -172 21q-89 0 -124.5 -36.5t-35.5 -121.5v-86h274z" />
<glyph unicode="&#xa5;" horiz-adv-x="1081" d="M899 322h-248v-166h-270v166h-229v170h229v106h-229v168h135l-254 436h338l176 -436h10l199 436h293l-289 -436h139v-168h-248v-106h248v-170z" />
<glyph unicode="&#xa6;" horiz-adv-x="614" d="M362 643h-110v852h110v-852zM362 -344h-110v852h110v-852z" />
<glyph unicode="&#xa7;" horiz-adv-x="1007" d="M182 379q0 71 39 127l494 -316q68 -44 106.5 -99t38.5 -142q0 -145 -103.5 -241.5t-289.5 -96.5q-80 0 -162.5 24.5t-138.5 57.5l53 178q42 -27 109 -48.5t129 -21.5q66 0 106.5 32.5t40.5 92.5q0 33 -23.5 62.5t-60.5 52.5t-82 46.5t-90 51t-82 59.5t-60.5 78.5 t-23.5 102.5zM827 664q0 -80 -36 -142l-484 314q-51 32 -82.5 62.5t-54.5 83t-23 120.5q0 123 94.5 201.5t288.5 78.5q164 0 275 -49l-27 -194q-108 51 -246 51q-65 0 -100 -25.5t-35 -66.5q0 -39 44.5 -73.5t107.5 -66t126 -68t107.5 -95t44.5 -131.5zM780 399v-127 l-540 351v125z" />
<glyph unicode="&#xa8;" horiz-adv-x="1067" d="M174 1176v268h256v-268h-256zM637 1176v268h256v-268h-256z" />
<glyph unicode="&#xa9;" horiz-adv-x="1228" d="M1114 868q0 -136 -67.5 -251t-182.5 -181.5t-250 -66.5q-102 0 -194.5 39.5t-159 106t-106 159t-39.5 194.5q0 136 66.5 251t181.5 182t251 67q135 0 250 -67t182.5 -182t67.5 -251zM612 1034q-68 0 -104.5 -37t-36.5 -131t37.5 -132t103.5 -38q83 0 172 54l43 -129 q-116 -68 -217 -68q-135 0 -218 79.5t-83 235.5q0 154 83.5 233t217.5 79q112 0 199 -41l-35 -135q-77 30 -162 30zM1036 868q0 175 -123.5 298.5t-298.5 123.5t-298 -123.5t-123 -298.5t123 -298.5t298 -123.5t298.5 123.5t123.5 298.5z" />
<glyph unicode="&#xaa;" horiz-adv-x="925" d="M817 614h-178l-33 119q-91 -139 -262 -139q-102 0 -170 69.5t-68 190.5q0 118 85 179t231 61h162v30q0 55 -35.5 82t-118.5 27q-120 0 -244 -57l-61 161q163 76 348 76q344 0 344 -285v-514zM584 831v134h-131q-123 0 -123 -99q0 -52 32.5 -80t81.5 -28q51 0 86.5 23.5 t53.5 49.5z" />
<glyph unicode="&#xab;" horiz-adv-x="1050" d="M989 702l-190 -253l190 -273l-168 -121l-321 398l325 383q23 -20 50.5 -42.5t61 -49t52.5 -42.5zM547 719l-191 -270l191 -291l-166 -121l-320 416q235 294 322 401z" />
<glyph unicode="&#xad;" horiz-adv-x="1003" d="M860 467h-717v170h717v-170z" />
<glyph unicode="&#xae;" horiz-adv-x="1228" d="M1114 639q0 -136 -67.5 -251t-182.5 -182t-250 -67q-136 0 -251 67t-181.5 182t-66.5 251t66.5 251t181.5 182t251 67q135 0 250 -67t182.5 -182t67.5 -251zM1036 639q0 175 -123.5 298.5t-298.5 123.5t-298 -123.5t-123 -298.5t123 -298.5t298 -123.5t298.5 123.5 t123.5 298.5zM860 745q0 -78 -38.5 -128.5t-88.5 -71.5l127 -213h-153l-103 194h-65v-194h-127v624h202q107 0 176.5 -54t69.5 -157zM717 745q0 103 -129 103h-49v-213h51q127 0 127 110z" />
<glyph unicode="&#xaf;" horiz-adv-x="1099" d="M948 1227h-796v133h796v-133z" />
<glyph unicode="&#xb0;" horiz-adv-x="1007" d="M322 1014q0 -78 52.5 -131.5t129.5 -53.5q78 0 131 53.5t53 131.5q0 77 -53 129.5t-131 52.5q-76 0 -129 -53t-53 -129zM115 1014q0 161 113 274t276 113t276 -113t113 -274q0 -164 -113 -277.5t-276 -113.5t-276 113.5t-113 277.5z" />
<glyph unicode="&#xb1;" horiz-adv-x="1056" d="M877 682h-240v-242h-223v242h-234v199h234v233h223v-233h240v-199zM920 111h-783v186h783v-186z" />
<glyph unicode="&#xb2;" horiz-adv-x="956" d="M842 1169q0 -243 -426 -452v-15q105 23 184 23h244v-197h-680v191q240 138 329 224.5t89 156.5q0 51 -38.5 78.5t-101.5 27.5q-133 0 -247 -69l-89 186q164 90 375 90q166 0 263.5 -69t97.5 -175z" />
<glyph unicode="&#xb3;" horiz-adv-x="956" d="M840 788q0 -124 -105 -202t-278 -78q-100 0 -192.5 28t-137.5 60l76 172q39 -27 110 -51.5t129 -24.5q75 0 118.5 29.5t43.5 75.5q0 51 -55.5 71.5t-173.5 20.5l-15 141q95 0 148 29t53 82q0 40 -35 62t-98 22q-120 0 -217 -60q-15 35 -41 101t-29 73q120 74 308 74 q158 0 252 -63t94 -164q0 -82 -48 -137.5t-122 -75.5q89 -13 152 -60.5t63 -124.5z" />
<glyph unicode="&#xb4;" horiz-adv-x="1259" d="M909 1262l-526 -103l-27 154l518 145z" />
<glyph unicode="&#xb6;" horiz-adv-x="1347" d="M612 -328v803q-235 0 -372.5 123t-137.5 346q0 111 43.5 197t118.5 137.5t168 77.5t199 26h573v-1710h-237v1483h-330q-118 0 -185 -58t-67 -163q0 -119 61 -183.5t166 -64.5v330h222v-1344h-222z" />
<glyph unicode="&#xb7;" horiz-adv-x="448" d="M88 735v289h270v-289h-270z" />
<glyph unicode="&#xb8;" horiz-adv-x="1124" d="M449 -121l10 27q62 8 143 8q93 0 145 -38.5t52 -108.5q0 -62 -33.5 -107.5t-91 -70.5t-123 -37t-141.5 -13v152q57 0 89.5 26t32.5 70q0 66 -83 92z" />
<glyph unicode="&#xb9;" horiz-adv-x="956" d="M426 717v211q0 88 12 176q-50 -71 -125.5 -118.5t-158.5 -51.5v211q227 46 329 248h179v-676h198v-189h-698v189h264z" />
<glyph unicode="&#xba;" horiz-adv-x="987" d="M494 1413q189 0 300 -108.5t111 -292.5q0 -212 -108.5 -314t-302.5 -102q-193 0 -302.5 101.5t-109.5 314.5q0 185 110.5 293t301.5 108zM494 793q61 0 101 53t40 164t-40 160t-101 49q-64 0 -104 -49.5t-40 -159.5q0 -108 41 -162.5t103 -54.5z" />
<glyph unicode="&#xbb;" horiz-adv-x="1056" d="M995 453l-319 -416l-168 121l192 291l-192 270l166 135zM549 453l-322 -398l-166 121l191 273l-191 253l164 134z" />
<glyph unicode="&#xbc;" horiz-adv-x="2048" d="M1313 1460l-500 -1552h-94l500 1552h94zM379 682v211q0 87 12 176q-50 -71 -126 -118.5t-159 -51.5v211q228 46 330 248h178v-676h199v-188h-698v188h264zM1939 193h-116v-193h-234v193h-424v139l205 553l160 -51v-84l-131 -371h190v485h234v-485h116v-186z" />
<glyph unicode="&#xbd;" horiz-adv-x="2068" d="M1313 1460l-500 -1552h-94l500 1552h94zM379 682v211q0 87 12 176q-50 -71 -126 -118.5t-159 -51.5v211q228 46 330 248h178v-676h199v-188h-698v188h264zM1960 641q0 -244 -426 -453v-14q105 23 184 23h244v-197h-680v190q240 138 329 224.5t89 156.5q0 51 -38 79 t-101 28q-132 0 -248 -70l-88 187q164 90 374 90q166 0 263.5 -69t97.5 -175z" />
<glyph unicode="&#xbe;" horiz-adv-x="2957" d="M1776 1460l-500 -1552h-94l499 1552h95zM1303 752q0 -124 -105 -202.5t-278 -78.5q-100 0 -192.5 28t-137.5 60l76 172q39 -27 110 -51.5t129 -24.5q75 0 118.5 29.5t43.5 75.5q0 51 -55.5 71.5t-173.5 20.5l-15 141q95 0 148 29t53 82q0 40 -35 62t-98 22 q-120 0 -217 -60q-15 34 -39.5 97.5t-30.5 77.5q118 73 307 73q158 0 252 -63t94 -164q0 -82 -48 -137.5t-122 -75.5q90 -14 153 -60.5t63 -123.5zM2429 193h-117v-193h-233v193h-424v139l205 553l159 -51v-84l-131 -371h191v485h233v-485h117v-186z" />
<glyph unicode="&#xbf;" horiz-adv-x="886" d="M55 -41q0 92 33.5 167.5t81 125.5t95 95t81 97t33.5 109v39h244v-60q0 -60 -17 -110.5t-44 -85.5t-60 -66.5t-66 -60t-60 -58.5t-44 -70.5t-17 -88.5q0 -95 60 -141t151 -46q126 0 252 70l72 -201q-183 -86 -371 -86q-183 0 -303.5 101t-120.5 270zM631 1001v-286h-260 v286h260z" />
<glyph unicode="&#xc0;" horiz-adv-x="1232" d="M360 311l-73 -311h-262l374 1382h447l362 -1382h-301l-71 311h-476zM645 1147h-84l-151 -619h376zM877 1458l-543 33l-2 197l565 -76q-1 -10 -10 -77t-10 -77z" />
<glyph unicode="&#xc1;" horiz-adv-x="1232" d="M360 311l-73 -311h-262l374 1382h447l362 -1382h-301l-71 311h-476zM645 1147h-84l-151 -619h376zM905 1491l-543 -33q-1 10 -10 77t-10 77l565 76z" />
<glyph unicode="&#xc2;" horiz-adv-x="1232" d="M360 311l-73 -311h-262l374 1382h447l362 -1382h-301l-71 311h-476zM645 1147h-84l-151 -619h376zM965 1579l-62 -147l-289 122l-286 -122l-62 147l314 164h69z" />
<glyph unicode="&#xc3;" horiz-adv-x="1232" d="M360 311l-73 -311h-262l374 1382h447l362 -1382h-301l-71 311h-476zM645 1147h-84l-151 -619h376zM983 1722q-5 -120 -75.5 -178t-182.5 -22l-207 67q-48 15 -84.5 -3t-54.5 -60l-129 59q8 109 90.5 168.5t194.5 22.5l190 -64q47 -15 83.5 2t53.5 60z" />
<glyph unicode="&#xc4;" horiz-adv-x="1232" d="M360 311l-73 -311h-262l374 1382h447l362 -1382h-301l-71 311h-476zM645 1147h-84l-151 -619h376zM256 1481v268h256v-268h-256zM719 1481v268h256v-268h-256z" />
<glyph unicode="&#xc5;" horiz-adv-x="1232" d="M360 311l-73 -311h-262l374 1382h447l362 -1382h-301l-71 311h-476zM645 1147h-84l-151 -619h376zM901 1716q0 -119 -83.5 -199.5t-201.5 -80.5q-121 0 -203.5 80.5t-82.5 199.5q0 118 83 199.5t203 81.5q118 0 201.5 -81.5t83.5 -199.5zM735 1714q0 50 -34 83.5 t-85 33.5q-47 0 -80.5 -34t-33.5 -83t33 -82t81 -33q51 0 85 33t34 82z" />
<glyph unicode="&#xc6;" horiz-adv-x="1673" d="M1589 0h-850v307h-352l-98 -307h-264l473 1382h1091v-227h-581v-340h444l-20 -237h-424v-355h581v-223zM659 1155l-204 -631h284v631h-80z" />
<glyph unicode="&#xc7;" horiz-adv-x="1224" d="M1163 127q-214 -147 -475 -147q-291 0 -444.5 185.5t-153.5 532.5q0 328 154.5 516.5t443.5 188.5q297 0 471 -117l-102 -217q-56 43 -146 69.5t-194 26.5q-171 0 -257.5 -118.5t-86.5 -346.5q0 -239 85.5 -361t254.5 -122q96 0 192.5 35.5t171.5 91.5zM532 -121l11 27 q62 8 143 8q93 0 145 -38.5t52 -108.5q0 -62 -33.5 -107.5t-91 -70.5t-123 -37t-141.5 -13v152q57 0 89.5 26t32.5 70q0 66 -84 92z" />
<glyph unicode="&#xc8;" horiz-adv-x="1069" d="M985 0h-850v1382h850v-227h-582v-340h445l-21 -237h-424v-355h582v-223zM827 1458l-542 33l-2 197l565 -76q-1 -10 -10.5 -77t-10.5 -77z" />
<glyph unicode="&#xc9;" horiz-adv-x="1069" d="M985 0h-850v1382h850v-227h-582v-340h445l-21 -237h-424v-355h582v-223zM825 1491l-542 -33q-1 10 -10.5 77t-10.5 77l565 76z" />
<glyph unicode="&#xca;" horiz-adv-x="1069" d="M985 0h-850v1382h850v-227h-582v-340h445l-21 -237h-424v-355h582v-223zM885 1587l-62 -147l-288 123l-287 -123l-62 147l314 164h69z" />
<glyph unicode="&#xcb;" horiz-adv-x="1069" d="M985 0h-850v1382h850v-227h-582v-340h445l-21 -237h-424v-355h582v-223zM174 1481v268h256v-268h-256zM637 1481v268h256v-268h-256z" />
<glyph unicode="&#xcc;" horiz-adv-x="600" d="M434 0h-268v1382h268v-1382zM561 1458l-543 33l-2 197l566 -76q-1 -10 -10.5 -77t-10.5 -77z" />
<glyph unicode="&#xcd;" horiz-adv-x="593" d="M432 0h-268v1382h268v-1382zM578 1491l-543 -33q-1 10 -10.5 77t-10.5 77l566 76z" />
<glyph unicode="&#xce;" horiz-adv-x="600" d="M434 0h-268v1382h268v-1382zM649 1587l-61 -147l-289 123l-287 -123l-61 147l313 164h70z" />
<glyph unicode="&#xcf;" horiz-adv-x="600" d="M434 0h-268v1382h268v-1382zM-59 1481v268h256v-268h-256zM403 1481v268h256v-268h-256z" />
<glyph unicode="&#xd1;" horiz-adv-x="1372" d="M1227 0h-424l-430 1087h-8l18 -1087h-242v1382h412l436 -1110h8l-18 1110h248v-1382zM1051 1700q-5 -120 -76 -178.5t-182 -22.5l-207 68q-48 15 -85 -3t-55 -61l-129 60q8 109 90.5 168t194.5 22l191 -63q47 -15 83.5 1.5t53.5 59.5z" />
<glyph unicode="&#xd2;" horiz-adv-x="1359" d="M1270 702q0 -117 -17.5 -218t-60 -195.5t-108.5 -161.5t-169.5 -107t-236.5 -40t-236 39.5t-168.5 105.5t-107.5 160.5t-59 196t-17 220.5q0 115 16.5 212.5t58 190t107 157t169 103t237.5 38.5q592 0 592 -701zM985 705q0 466 -307 466q-305 0 -305 -466q0 -87 8 -157.5 t29 -136t55 -110t88 -70.5t125 -26q307 0 307 500zM942 1458l-543 33l-2 197l566 -76q-1 -10 -10.5 -77t-10.5 -77z" />
<glyph unicode="&#xd3;" horiz-adv-x="1359" d="M1270 702q0 -117 -17.5 -218t-60 -195.5t-108.5 -161.5t-169.5 -107t-236.5 -40t-236 39.5t-168.5 105.5t-107.5 160.5t-59 196t-17 220.5q0 115 16.5 212.5t58 190t107 157t169 103t237.5 38.5q592 0 592 -701zM985 705q0 466 -307 466q-305 0 -305 -466q0 -87 8 -157.5 t29 -136t55 -110t88 -70.5t125 -26q307 0 307 500zM961 1491l-543 -33q-1 10 -10.5 77t-10.5 77l566 76z" />
<glyph unicode="&#xd4;" horiz-adv-x="1359" d="M1270 702q0 -117 -17.5 -218t-60 -195.5t-108.5 -161.5t-169.5 -107t-236.5 -40t-236 39.5t-168.5 105.5t-107.5 160.5t-59 196t-17 220.5q0 115 16.5 212.5t58 190t107 157t169 103t237.5 38.5q592 0 592 -701zM985 705q0 466 -307 466q-305 0 -305 -466q0 -87 8 -157.5 t29 -136t55 -110t88 -70.5t125 -26q307 0 307 500zM1028 1587l-61 -147l-289 123l-287 -123l-61 147l313 164h70z" />
<glyph unicode="&#xd5;" horiz-adv-x="1359" d="M1270 702q0 -117 -17.5 -218t-60 -195.5t-108.5 -161.5t-169.5 -107t-236.5 -40t-236 39.5t-168.5 105.5t-107.5 160.5t-59 196t-17 220.5q0 115 16.5 212.5t58 190t107 157t169 103t237.5 38.5q592 0 592 -701zM985 705q0 466 -307 466q-305 0 -305 -466q0 -87 8 -157.5 t29 -136t55 -110t88 -70.5t125 -26q307 0 307 500zM1047 1722q-5 -120 -76 -178t-183 -22l-206 67q-48 15 -85 -3t-55 -60l-129 59q8 109 90.5 168.5t194.5 22.5l190 -64q47 -15 84 2t54 60z" />
<glyph unicode="&#xd6;" horiz-adv-x="1359" d="M1270 702q0 -117 -17.5 -218t-60 -195.5t-108.5 -161.5t-169.5 -107t-236.5 -40t-236 39.5t-168.5 105.5t-107.5 160.5t-59 196t-17 220.5q0 115 16.5 212.5t58 190t107 157t169 103t237.5 38.5q592 0 592 -701zM985 705q0 466 -307 466q-305 0 -305 -466q0 -87 8 -157.5 t29 -136t55 -110t88 -70.5t125 -26q307 0 307 500zM319 1481v268h256v-268h-256zM782 1481v268h256v-268h-256z" />
<glyph unicode="&#xd7;" horiz-adv-x="1013" d="M852 356l-145 -147l-209 209l-209 -209l-137 135q35 36 208 209l-206 209l145 145q23 -23 65.5 -65t77 -76.5t64.5 -65.5l219 218l135 -136l-217 -219z" />
<glyph unicode="&#xd9;" horiz-adv-x="1314" d="M1178 1382v-860q0 -111 -31 -207t-92 -172t-163 -119.5t-235 -43.5q-132 0 -233.5 42.5t-163 117.5t-92.5 171.5t-31 210.5v860h269v-841q0 -157 62.5 -245.5t188.5 -88.5q124 0 186 88.5t62 245.5v841h273zM920 1458l-543 33l-2 197l565 -76q-1 -10 -10 -77t-10 -77z " />
<glyph unicode="&#xda;" horiz-adv-x="1314" d="M1178 1382v-860q0 -111 -31 -207t-92 -172t-163 -119.5t-235 -43.5q-132 0 -233.5 42.5t-163 117.5t-92.5 171.5t-31 210.5v860h269v-841q0 -157 62.5 -245.5t188.5 -88.5q124 0 186 88.5t62 245.5v841h273zM938 1491l-543 -33q-1 10 -10 77t-10 77l565 76z" />
<glyph unicode="&#xdb;" horiz-adv-x="1314" d="M1178 1382v-860q0 -111 -31 -207t-92 -172t-163 -119.5t-235 -43.5q-132 0 -233.5 42.5t-163 117.5t-92.5 171.5t-31 210.5v860h269v-841q0 -157 62.5 -245.5t188.5 -88.5q124 0 186 88.5t62 245.5v841h273zM1006 1587l-62 -147l-289 123l-286 -123l-62 147l314 164h69z " />
<glyph unicode="&#xdc;" horiz-adv-x="1314" d="M1178 1382v-860q0 -111 -31 -207t-92 -172t-163 -119.5t-235 -43.5q-132 0 -233.5 42.5t-163 117.5t-92.5 171.5t-31 210.5v860h269v-841q0 -157 62.5 -245.5t188.5 -88.5q124 0 186 88.5t62 245.5v841h273zM299 1481v268h256v-268h-256zM762 1481v268h256v-268h-256z " />
<glyph unicode="&#xdd;" horiz-adv-x="1175" d="M1163 1382l-465 -901v-481h-270v483l-416 899h340l240 -622h10l268 622h293zM868 1491l-542 -33q-1 10 -10.5 77t-10.5 77l565 76z" />
<glyph unicode="&#xdf;" horiz-adv-x="1210" d="M1063 1102q0 -56 -18 -101.5t-45 -72.5t-58 -52.5t-58 -44.5t-45 -46.5t-18 -59.5q0 -30 19.5 -53.5t51 -39.5t69.5 -32.5t76.5 -40t70 -54t51 -81.5t19.5 -117q0 -143 -106.5 -235t-291.5 -92q-114 0 -237 67v197q38 -26 110.5 -50t118.5 -24q71 0 108.5 32.5t37.5 86.5 q0 39 -19 68t-50 48.5t-68 37.5t-74.5 40.5t-68.5 52t-50 78.5t-19 113q0 50 18.5 91t46.5 66t60 50t60 45t46.5 49.5t18.5 63.5q0 67 -47 110t-133 43q-182 0 -182 -192v-1053h-269v811h-147v193h147v69q0 173 117.5 274t343.5 101q202 0 308 -95.5t106 -250.5z" />
<glyph unicode="&#xe0;" horiz-adv-x="1034" d="M928 0h-183l-36 119q-43 -59 -119 -99t-174 -40q-151 0 -243.5 88t-92.5 233q0 140 99 218.5t280 78.5h211v51q0 170 -176 170q-153 0 -301 -67l-68 190q191 82 395 82q211 0 309.5 -96t98.5 -291v-637zM670 229v209h-166q-80 0 -121 -35t-41 -94q0 -70 38 -108.5 t112 -38.5q94 0 178 67zM766 1159l-526 103l34 196l519 -145z" />
<glyph unicode="&#xe1;" horiz-adv-x="1034" d="M928 0h-183l-36 119q-43 -59 -119 -99t-174 -40q-151 0 -243.5 88t-92.5 233q0 140 99 218.5t280 78.5h211v51q0 170 -176 170q-153 0 -301 -67l-68 190q191 82 395 82q211 0 309.5 -96t98.5 -291v-637zM670 229v209h-166q-80 0 -121 -35t-41 -94q0 -70 38 -108.5 t112 -38.5q94 0 178 67zM795 1262l-527 -103l-26 154l518 145z" />
<glyph unicode="&#xe2;" horiz-adv-x="1034" d="M928 0h-183l-36 119q-43 -59 -119 -99t-174 -40q-151 0 -243.5 88t-92.5 233q0 140 99 218.5t280 78.5h211v51q0 170 -176 170q-153 0 -301 -67l-68 190q191 82 395 82q211 0 309.5 -96t98.5 -291v-637zM670 229v209h-166q-80 0 -121 -35t-41 -94q0 -70 38 -108.5 t112 -38.5q94 0 178 67zM866 1292l-61 -147l-289 123l-287 -123l-61 147l313 164h70z" />
<glyph unicode="&#xe3;" horiz-adv-x="1034" d="M928 0h-183l-36 119q-43 -59 -119 -99t-174 -40q-151 0 -243.5 88t-92.5 233q0 140 99 218.5t280 78.5h211v51q0 170 -176 170q-153 0 -301 -67l-68 190q191 82 395 82q211 0 309.5 -96t98.5 -291v-637zM670 229v209h-166q-80 0 -121 -35t-41 -94q0 -70 38 -108.5 t112 -38.5q94 0 178 67zM885 1366q-5 -120 -76 -178.5t-182 -22.5l-207 68q-48 15 -84.5 -3t-54.5 -61l-129 60q8 109 90 168t194 22l191 -63q47 -15 83.5 1.5t53.5 59.5z" />
<glyph unicode="&#xe4;" horiz-adv-x="1034" d="M928 0h-183l-36 119q-43 -59 -119 -99t-174 -40q-151 0 -243.5 88t-92.5 233q0 140 99 218.5t280 78.5h211v51q0 170 -176 170q-153 0 -301 -67l-68 190q191 82 395 82q211 0 309.5 -96t98.5 -291v-637zM670 229v209h-166q-80 0 -121 -35t-41 -94q0 -70 38 -108.5 t112 -38.5q94 0 178 67zM158 1176v268h256v-268h-256zM621 1176v268h256v-268h-256z" />
<glyph unicode="&#xe5;" horiz-adv-x="1034" d="M928 0h-183l-36 119q-43 -59 -119 -99t-174 -40q-151 0 -243.5 88t-92.5 233q0 140 99 218.5t280 78.5h211v51q0 170 -176 170q-153 0 -301 -67l-68 190q191 82 395 82q211 0 309.5 -96t98.5 -291v-637zM670 229v209h-166q-80 0 -121 -35t-41 -94q0 -70 38 -108.5 t112 -38.5q94 0 178 67zM805 1348q0 -119 -83.5 -200t-201.5 -81q-121 0 -204 81t-83 200q0 118 83.5 199t203.5 81q118 0 201.5 -81t83.5 -199zM639 1346q0 50 -34 83t-85 33q-48 0 -81 -33.5t-33 -82.5t33 -82t81 -33q51 0 85 33t34 82z" />
<glyph unicode="&#xe6;" horiz-adv-x="1634" d="M778 160h-8q-52 -76 -141 -128t-213 -52q-155 0 -246.5 88t-91.5 233q0 139 100.5 214t280.5 75h211v59q0 91 -47.5 130.5t-122.5 39.5q-161 0 -314 -69l-69 190q187 84 399 84q207 0 307 -123q59 60 130 91.5t175 31.5q110 0 193.5 -38.5t132.5 -106t73.5 -151 t24.5 -181.5v-115h-622q0 -119 66.5 -184.5t191.5 -65.5q117 0 293 86l51 -188q-187 -100 -377 -100q-261 0 -377 180zM670 242v192h-166q-82 0 -123 -33t-41 -92q0 -70 39 -108.5t113 -38.5q49 0 96.5 22.5t81.5 57.5zM1296 590q0 237 -180 237q-93 0 -139.5 -69 t-46.5 -168h366z" />
<glyph unicode="&#xe7;" horiz-adv-x="978" d="M870 258l50 -190q-59 -32 -151.5 -60t-193.5 -28q-229 0 -354 131.5t-125 390.5q0 245 127 383.5t350 138.5q202 0 345 -82l-70 -182q-102 61 -252 61q-227 0 -227 -319q0 -320 229 -320q136 0 272 76zM434 -121l10 27q62 8 144 8q93 0 144.5 -38.5t51.5 -108.5 q0 -62 -33.5 -107.5t-91 -70.5t-123 -37t-141.5 -13v152q57 0 90 26t33 70q0 66 -84 92z" />
<glyph unicode="&#xe8;" horiz-adv-x="1056" d="M975 430h-625q0 -120 66 -184t192 -64q131 0 295 84l51 -188q-183 -98 -379 -98q-232 0 -362.5 138t-130.5 386q0 241 118.5 380.5t352.5 139.5q110 0 193 -38.5t132 -106t73 -151t24 -181.5v-117zM717 588q0 239 -178 239q-93 0 -141 -70t-48 -169h367zM784 1159 l-526 103l35 196l518 -145z" />
<glyph unicode="&#xe9;" horiz-adv-x="1056" d="M975 430h-625q0 -120 66 -184t192 -64q131 0 295 84l51 -188q-183 -98 -379 -98q-232 0 -362.5 138t-130.5 386q0 241 118.5 380.5t352.5 139.5q110 0 193 -38.5t132 -106t73 -151t24 -181.5v-117zM717 588q0 239 -178 239q-93 0 -141 -70t-48 -169h367zM809 1262 l-526 -103l-27 154l518 145z" />
<glyph unicode="&#xea;" horiz-adv-x="1056" d="M975 430h-625q0 -120 66 -184t192 -64q131 0 295 84l51 -188q-183 -98 -379 -98q-232 0 -362.5 138t-130.5 386q0 241 118.5 380.5t352.5 139.5q110 0 193 -38.5t132 -106t73 -151t24 -181.5v-117zM717 588q0 239 -178 239q-93 0 -141 -70t-48 -169h367zM891 1292 l-62 -147l-288 123l-287 -123l-61 147l313 164h69z" />
<glyph unicode="&#xeb;" horiz-adv-x="1056" d="M975 430h-625q0 -120 66 -184t192 -64q131 0 295 84l51 -188q-183 -98 -379 -98q-232 0 -362.5 138t-130.5 386q0 241 118.5 380.5t352.5 139.5q110 0 193 -38.5t132 -106t73 -151t24 -181.5v-117zM717 588q0 239 -178 239q-93 0 -141 -70t-48 -169h367zM174 1176v268 h256v-268h-256zM637 1176v268h256v-268h-256z" />
<glyph unicode="&#xec;" horiz-adv-x="595" d="M547 1159l-527 103l35 196l518 -145zM469 0h-266v811l-117 25v168h383v-1004z" />
<glyph unicode="&#xed;" horiz-adv-x="595" d="M584 1262l-527 -103l-26 154l518 145zM469 0h-266v811l-117 25v168h383v-1004z" />
<glyph unicode="&#xee;" horiz-adv-x="595" d="M469 0h-266v811l-117 25v168h383v-1004zM647 1292l-61 -147l-289 123l-287 -123l-61 147l313 164h70z" />
<glyph unicode="&#xef;" horiz-adv-x="595" d="M-61 1176v268h256v-268h-256zM401 1176v268h256v-268h-256zM469 0h-266v811l-117 25v168h383v-1004z" />
<glyph unicode="&#xf1;" horiz-adv-x="1114" d="M1016 0h-273v596q0 114 -44 168.5t-136 54.5q-84 0 -176 -61v-758h-268v1004h184l41 -115q48 57 130.5 96t187.5 39q185 0 269.5 -103t84.5 -300v-621zM932 1366q-5 -120 -76 -178.5t-182 -22.5l-207 68q-48 15 -84.5 -3t-54.5 -61l-129 60q8 109 90 168t194 22l191 -63 q47 -15 83.5 1.5t53.5 59.5z" />
<glyph unicode="&#xf2;" horiz-adv-x="1101" d="M551 1024q148 0 256 -69t161.5 -185.5t53.5 -265.5q0 -255 -122.5 -389.5t-348.5 -134.5q-227 0 -349 134t-122 390q0 229 124 374.5t347 145.5zM551 176q101 0 149 76t48 252q0 175 -49.5 250t-147.5 75t-146.5 -75.5t-48.5 -249.5q0 -172 47.5 -250t147.5 -78z M850 1159l-526 103l34 196l519 -145z" />
<glyph unicode="&#xf3;" horiz-adv-x="1101" d="M551 1024q148 0 256 -69t161.5 -185.5t53.5 -265.5q0 -255 -122.5 -389.5t-348.5 -134.5q-227 0 -349 134t-122 390q0 229 124 374.5t347 145.5zM551 176q101 0 149 76t48 252q0 175 -49.5 250t-147.5 75t-146.5 -75.5t-48.5 -249.5q0 -172 47.5 -250t147.5 -78z M829 1262l-526 -103l-27 154l519 145z" />
<glyph unicode="&#xf4;" horiz-adv-x="1101" d="M551 1024q148 0 256 -69t161.5 -185.5t53.5 -265.5q0 -255 -122.5 -389.5t-348.5 -134.5q-227 0 -349 134t-122 390q0 229 124 374.5t347 145.5zM551 176q101 0 149 76t48 252q0 175 -49.5 250t-147.5 75t-146.5 -75.5t-48.5 -249.5q0 -172 47.5 -250t147.5 -78z M901 1292l-61 -147l-289 123l-287 -123l-61 147l313 164h70z" />
<glyph unicode="&#xf5;" horiz-adv-x="1101" d="M551 1024q148 0 256 -69t161.5 -185.5t53.5 -265.5q0 -255 -122.5 -389.5t-348.5 -134.5q-227 0 -349 134t-122 390q0 229 124 374.5t347 145.5zM551 176q101 0 149 76t48 252q0 175 -49.5 250t-147.5 75t-146.5 -75.5t-48.5 -249.5q0 -172 47.5 -250t147.5 -78z M920 1366q-5 -120 -76 -178.5t-182 -22.5l-207 68q-48 15 -85 -3t-55 -61l-129 60q8 109 90.5 168t194.5 22l191 -63q47 -15 83.5 1.5t53.5 59.5z" />
<glyph unicode="&#xf6;" horiz-adv-x="1101" d="M551 1024q148 0 256 -69t161.5 -185.5t53.5 -265.5q0 -255 -122.5 -389.5t-348.5 -134.5q-227 0 -349 134t-122 390q0 229 124 374.5t347 145.5zM551 176q101 0 149 76t48 252q0 175 -49.5 250t-147.5 75t-146.5 -75.5t-48.5 -249.5q0 -172 47.5 -250t147.5 -78z M193 1176v268h256v-268h-256zM655 1176v268h256v-268h-256z" />
<glyph unicode="&#xf7;" horiz-adv-x="972" d="M362 37v274h246v-274h-246zM362 805v274h246v-274h-246zM846 469h-719v186h719v-186z" />
<glyph unicode="&#xf9;" horiz-adv-x="1099" d="M997 0h-176l-41 123q-43 -56 -124 -99.5t-189 -43.5q-186 0 -275.5 103t-89.5 312v609h267v-611q0 -114 42 -161.5t134 -47.5q95 0 180 60v760h272v-1004zM799 1159l-527 103l35 196l518 -145z" />
<glyph unicode="&#xfa;" horiz-adv-x="1099" d="M997 0h-176l-41 123q-43 -56 -124 -99.5t-189 -43.5q-186 0 -275.5 103t-89.5 312v609h267v-611q0 -114 42 -161.5t134 -47.5q95 0 180 60v760h272v-1004zM827 1262l-526 -103l-27 154l519 145z" />
<glyph unicode="&#xfb;" horiz-adv-x="1099" d="M997 0h-176l-41 123q-43 -56 -124 -99.5t-189 -43.5q-186 0 -275.5 103t-89.5 312v609h267v-611q0 -114 42 -161.5t134 -47.5q95 0 180 60v760h272v-1004zM899 1292l-61 -147l-289 123l-287 -123l-61 147l313 164h70z" />
<glyph unicode="&#xfc;" horiz-adv-x="1099" d="M997 0h-176l-41 123q-43 -56 -124 -99.5t-189 -43.5q-186 0 -275.5 103t-89.5 312v609h267v-611q0 -114 42 -161.5t134 -47.5q95 0 180 60v760h272v-1004zM197 1176v268h256v-268h-256zM659 1176v268h256v-268h-256z" />
<glyph unicode="&#xfd;" horiz-adv-x="1040" d="M496 -6l8 29l-187 -33l-299 1014h301l213 -842h5l215 842h266l-309 -1029q-63 -210 -170.5 -302.5t-268.5 -92.5q-77 0 -160 33.5t-122 67.5l84 182h24q96 -72 187 -72q155 0 213 203zM780 1262l-526 -103l-27 154l518 145z" />
<glyph unicode="&#xff;" horiz-adv-x="1040" d="M496 -6l8 29l-187 -33l-299 1014h301l213 -842h5l215 842h266l-309 -1029q-63 -210 -170.5 -302.5t-268.5 -92.5q-77 0 -160 33.5t-122 67.5l84 182h24q96 -72 187 -72q155 0 213 203zM143 1176v268h256v-268h-256zM606 1176v268h256v-268h-256z" />
<glyph unicode="&#x152;" horiz-adv-x="1918" d="M1833 0h-850l6 98q-124 -118 -313 -118q-133 0 -236 39.5t-168 105.5t-107 160.5t-58.5 196t-16.5 220.5q0 115 16.5 212.5t57.5 190t106 156.5t168.5 103t237.5 39q105 0 177 -29t136 -84l-6 92h850v-227h-582v-340h445l-21 -237h-424v-355h582v-223zM979 705 q0 80 -8 145.5t-29 127t-54.5 103t-87 66t-124.5 24.5q-303 0 -303 -466q0 -110 13.5 -195t46 -156.5t94 -110t149.5 -38.5q86 0 147 38t94 108.5t47.5 156.5t14.5 197z" />
<glyph unicode="&#x153;" horiz-adv-x="1724" d="M1642 430h-622q0 -120 66.5 -184t191.5 -64q117 0 293 86l51 -188q-187 -100 -377 -100q-218 0 -354 153q-63 -75 -143.5 -114t-196.5 -39q-227 0 -349 134t-122 390q0 229 124 374.5t347 145.5q108 0 186 -41.5t142 -116.5q133 158 340 158q88 0 160 -25.5t120 -69.5 t81 -105.5t47.5 -130t14.5 -146.5v-117zM551 176q101 0 149 76t48 252q0 175 -49.5 250t-147.5 75t-146.5 -75.5t-48.5 -249.5q0 -172 47.5 -250t147.5 -78zM1386 588q0 239 -178 239q-94 0 -141 -69.5t-47 -169.5h366z" />
<glyph unicode="&#x178;" horiz-adv-x="1175" d="M1163 1382l-465 -901v-481h-270v483l-416 899h340l240 -622h10l268 622h293zM227 1481v268h256v-268h-256zM690 1481v268h256v-268h-256z" />
<glyph unicode="&#x2c6;" horiz-adv-x="1112" d="M905 1292l-61 -147l-289 123l-287 -123l-61 147l313 164h70z" />
<glyph unicode="&#x2dc;" horiz-adv-x="1198" d="M965 1366q-5 -120 -76 -178.5t-182 -22.5l-207 68q-48 15 -85 -3t-55 -61l-129 60q8 109 90.5 168t194.5 22l191 -63q47 -15 83.5 1.5t53.5 59.5z" />
<glyph unicode="&#x2000;" horiz-adv-x="998" />
<glyph unicode="&#x2001;" horiz-adv-x="1997" />
<glyph unicode="&#x2002;" horiz-adv-x="998" />
<glyph unicode="&#x2003;" horiz-adv-x="1997" />
<glyph unicode="&#x2004;" horiz-adv-x="665" />
<glyph unicode="&#x2005;" horiz-adv-x="499" />
<glyph unicode="&#x2006;" horiz-adv-x="332" />
<glyph unicode="&#x2007;" horiz-adv-x="332" />
<glyph unicode="&#x2008;" horiz-adv-x="249" />
<glyph unicode="&#x2009;" horiz-adv-x="399" />
<glyph unicode="&#x200a;" horiz-adv-x="110" />
<glyph unicode="&#x2010;" horiz-adv-x="1003" d="M860 467h-717v170h717v-170z" />
<glyph unicode="&#x2011;" horiz-adv-x="1003" d="M860 467h-717v170h717v-170z" />
<glyph unicode="&#x2012;" horiz-adv-x="1003" d="M860 467h-717v170h717v-170z" />
<glyph unicode="&#x2013;" horiz-adv-x="1009" d="M864 479h-719v187h719v-187z" />
<glyph unicode="&#x2014;" horiz-adv-x="1476" d="M1337 479h-1200v187h1200v-187z" />
<glyph unicode="&#x2018;" horiz-adv-x="530" d="M338 805h-272q9 187 58 331t138 277l203 -49q-124 -255 -127 -559z" />
<glyph unicode="&#x2019;" horiz-adv-x="530" d="M193 1413h270q-7 -185 -56.5 -328.5t-138.5 -279.5l-202 49q122 246 127 559z" />
<glyph unicode="&#x201a;" horiz-adv-x="530" d="M193 211h270q-7 -184 -56.5 -327t-138.5 -279l-202 49q122 249 127 557z" />
<glyph unicode="&#x201c;" horiz-adv-x="878" d="M700 805h-272q10 298 172 590l201 -49q-54 -115 -76.5 -242t-24.5 -299zM348 805h-272q13 292 217 608l203 -49q-146 -284 -148 -559z" />
<glyph unicode="&#x201d;" horiz-adv-x="878" d="M176 1413h273q-10 -299 -173 -590l-200 49q54 115 76 241t24 300zM528 1413h273q-13 -301 -217 -608l-203 49q144 278 147 559z" />
<glyph unicode="&#x201e;" horiz-adv-x="878" d="M176 233h273q-10 -294 -173 -585l-200 47q54 115 76 240.5t24 297.5zM528 233h273q-13 -297 -217 -604l-203 47q145 282 147 557z" />
<glyph unicode="&#x2022;" horiz-adv-x="700" d="M485 377h-272q-54 276 0 510h272q58 -229 0 -510z" />
<glyph unicode="&#x2026;" horiz-adv-x="1392" d="M96 0v289h271v-289h-271zM561 0v289h270v-289h-270zM1026 0v289h268v-289h-268z" />
<glyph unicode="&#x202f;" horiz-adv-x="399" />
<glyph unicode="&#x2039;" horiz-adv-x="606" d="M383 37q-60 79 -173 223.5t-149 190.5l322 399l166 -123l-193 -281q33 -49 96.5 -149.5t96.5 -149.5q-71 -46 -166 -110z" />
<glyph unicode="&#x203a;" horiz-adv-x="606" d="M545 451l-322 -414l-166 110l193 299l-193 281l166 123z" />
<glyph unicode="&#x205f;" horiz-adv-x="499" />
<glyph unicode="&#x20ac;" horiz-adv-x="1034" d="M907 424l49 -191q-153 -86 -327 -86q-180 0 -293.5 92t-149.5 275h-125v133h109v86h-109v133h127q38 170 153.5 263.5t287.5 93.5q184 0 323 -68q-26 -103 -51 -190q-105 57 -246 57q-150 0 -194 -156h233l-16 -133h-234v-86h222q-3 -23 -7.5 -67t-7.5 -66h-190 q20 -91 66.5 -127.5t127.5 -36.5q127 0 252 74z" />
<glyph unicode="&#x2122;" horiz-adv-x="1695" d="M1126 537l97 -426l-375 223l-375 -223l94 426l-325 286l432 41l174 400l172 -400l434 -41z" />
<glyph unicode="&#x25fc;" horiz-adv-x="1003" d="M0 1004h1004v-1004h-1004v1004z" />
<glyph unicode="&#xfb01;" horiz-adv-x="1191" d="M1073 0h-266v811h-350v-811h-269v811h-147v193h147v83q0 177 99.5 269t292.5 92q66 0 161 -21v-210q-56 16 -143 16q-141 0 -141 -158v-71h616v-1004zM799 1169v244h270v-244h-270z" />
<glyph unicode="&#xfb02;" horiz-adv-x="1308" d="M748 1427l-19 -210q-56 16 -127 16q-70 0 -107.5 -40t-37.5 -118v-71h223v-193h-223v-811h-269v811h-147v193h147v83q0 178 100 269.5t296 91.5q74 0 164 -21zM1108 -20q-148 0 -213.5 73t-65.5 213v1147h265v-1132q0 -60 35.5 -78.5t125.5 -18.5v-188q-77 -16 -147 -16z " />
<glyph unicode="&#xfb03;" horiz-adv-x="1804" d="M1686 0h-267v811h-350v-811h-268v811h-344v-811h-269v811h-147v193h147v83q0 178 100 269.5t296 91.5q74 0 164 -21l-19 -210q-56 16 -127 16q-64 0 -104.5 -42t-40.5 -116v-71h344v83q0 177 99 269t292 92q72 0 162 -21v-210q-53 16 -144 16q-69 0 -105 -40.5 t-36 -117.5v-71h617v-1004zM1411 1169v244h270v-244h-270z" />
<glyph unicode="&#xfb04;" horiz-adv-x="1921" d="M1360 1427l-19 -210q-53 16 -127 16q-68 0 -106.5 -41t-38.5 -117v-71h223v-193h-223v-811h-268v811h-344v-811h-269v811h-147v193h147v83q0 178 100 269.5t296 91.5q74 0 164 -21l-19 -210q-56 16 -127 16q-67 0 -106 -40.5t-39 -117.5v-71h344v83q0 178 99.5 269.5 t295.5 91.5q74 0 164 -21zM1722 -20q-148 0 -214 73t-66 213v1147h266v-1132q0 -59 36.5 -78t123.5 -19v-188q-76 -16 -146 -16z" />
</font>
</defs>
</svg>
