<?xml version="1.0" standalone="no"?>
<!DOCTYPE svg PUBLIC "-//W3C//DTD SVG 1.1//EN" "http://www.w3.org/Graphics/SVG/1.1/DTD/svg11.dtd" >
<svg xmlns="http://www.w3.org/2000/svg">
<metadata></metadata>
<defs>
<font id="gobcllight" horiz-adv-x="1064" >
<font-face units-per-em="2048" ascent="1597" descent="-451" />
<missing-glyph horiz-adv-x="450" />
<glyph horiz-adv-x="2048" />
<glyph horiz-adv-x="2048" />
<glyph unicode="&#xd;" horiz-adv-x="2048" />
<glyph unicode=" "  horiz-adv-x="450" />
<glyph unicode="&#x09;" horiz-adv-x="450" />
<glyph unicode="&#xa0;" horiz-adv-x="450" />
<glyph unicode="!" horiz-adv-x="550" d="M326 862l-21 -473h-59l-21 473v551h101v-551zM227 0v201h97v-201h-97z" />
<glyph unicode="&#x22;" horiz-adv-x="550" d="M217 1413l-8 -604h-68l-8 604h84zM418 1413l-8 -604h-68l-8 604h84z" />
<glyph unicode="#" d="M881 459h-201l-62 -324h-90l62 324h-184l-62 -324h-90l61 324h-131v92h148l41 207h-189v92h205l68 346h90l-68 -346h185l67 346h90l-67 -346h127v-92h-144l-41 -207h185v-92zM463 758l-41 -207h184l41 207h-184z" />
<glyph unicode="$" horiz-adv-x="956" d="M532 -20h-98l2 188q-155 9 -272 92l39 80q41 -36 115.5 -64t146.5 -28q107 0 168 54t61 149q0 49 -22.5 86.5t-59 59.5t-83 43.5t-95.5 37t-95.5 40t-83 53t-59 76t-22.5 109.5q0 97 67.5 169t194.5 85l-2 201h98l-4 -201q159 -10 265 -73l-33 -76q-120 69 -277 69 q-106 0 -161.5 -46.5t-55.5 -129.5q0 -49 29 -85.5t75.5 -60t103 -44t112.5 -45t102.5 -56.5t75.5 -85t29 -123q0 -104 -71.5 -183.5t-193.5 -99.5z" />
<glyph unicode="%" horiz-adv-x="1761" d="M692 999q0 -114 -24 -199t-66.5 -133t-93 -71t-109.5 -23q-55 0 -103 23t-88.5 71t-64.5 133.5t-24 198.5q0 209 77 311.5t203 102.5q142 0 217.5 -98.5t75.5 -315.5zM600 999q0 186 -49 260t-152 74q-95 0 -141.5 -75.5t-46.5 -258.5q0 -344 188 -344q97 0 149 78.5 t52 265.5zM1642 406q0 -114 -24 -199t-66 -133t-92.5 -71t-109.5 -23q-55 0 -103 23t-89 71t-65 133.5t-24 198.5q0 209 77 311t204 102q142 0 217 -98t75 -315zM1550 406q0 186 -48.5 259.5t-151.5 73.5q-95 0 -142 -75t-47 -258q0 -345 189 -345q97 0 148.5 79t51.5 266z M1169 1460l-499 -1552h-95l500 1552h94z" />
<glyph unicode="&#x26;" horiz-adv-x="1187" d="M829 1143q0 -60 -24.5 -114t-69.5 -99.5t-93 -80.5t-112 -71l367 -485q67 115 133 356l82 -20q-70 -268 -162 -408l166 -221h-110l-113 145q-145 -165 -375 -165q-74 0 -145.5 24.5t-133 72t-99.5 129t-38 183.5q0 65 17 120.5t43 95t68 77t79 62t90 53.5l-8 12 q-39 51 -62.5 88.5t-47 101.5t-23.5 127q0 140 83.5 213.5t207.5 73.5q120 0 200 -72t80 -198zM520 59q197 0 322 154l-393 518q-55 -33 -93.5 -63t-75 -71.5t-55 -93.5t-18.5 -114q0 -81 28 -146t74 -104t100.5 -59.5t110.5 -20.5zM362 1122q0 -121 121 -278l2 -4 q140 78 193 147.5t53 157.5q0 85 -54 133.5t-128 48.5q-79 0 -133 -52t-54 -153z" />
<glyph unicode="'" horiz-adv-x="350" d="M217 1413l-8 -604h-68l-8 604h84z" />
<glyph unicode="(" horiz-adv-x="512" d="M461 -10l-51 -45q-117 107 -202 312t-85 441q0 234 85 440.5t202 313.5l49 -45q-91 -96 -165.5 -299.5t-74.5 -409.5q0 -208 74.5 -410t167.5 -298z" />
<glyph unicode=")" horiz-adv-x="512" d="M102 -55l-51 45q93 96 167.5 298t74.5 410q0 206 -74.5 409.5t-165.5 299.5l49 45q117 -107 202 -313.5t85 -440.5q0 -236 -85 -441t-202 -312z" />
<glyph unicode="*" horiz-adv-x="942" d="M819 1112l-280 -90l174 -240l-68 -47l-174 238l-174 -240l-66 49l172 238l-280 92l24 78l283 -90v293h82v-293l283 90z" />
<glyph unicode="+" horiz-adv-x="913" d="M780 567h-282v-311h-88v311h-277v82h277v297h88v-297h282v-82z" />
<glyph unicode="," horiz-adv-x="321" d="M113 10v191h96v-201q0 -128 -20.5 -174t-75.5 -55v53q41 7 41 156v20z" />
<glyph unicode="-" horiz-adv-x="917" d="M774 528h-631v78h631v-78z" />
<glyph unicode="." horiz-adv-x="321" d="M113 0v201h96v-201h-96z" />
<glyph unicode="/" horiz-adv-x="614" d="M604 1460l-500 -1552h-94l500 1552h94z" />
<glyph unicode="0" d="M961 700q0 -221 -43.5 -378.5t-142 -249.5t-247.5 -92q-114 0 -197 50.5t-132 147t-72 225.5t-23 297q0 219 42.5 375t139 247t242.5 91q116 0 201 -52.5t135 -149.5t73.5 -224t23.5 -287zM860 700q0 625 -332 625q-323 0 -323 -625q0 -112 9 -202.5t31.5 -172 t58.5 -136.5t93 -87t131 -32q332 0 332 630z" />
<glyph unicode="1" d="M893 0h-631v80h277v997l10 187q-41 -60 -155 -130t-206 -98l-16 88q101 19 214 101.5t169 167.5h86v-1313h252v-80z" />
<glyph unicode="2" d="M940 0h-807v88q218 204 357 351.5t211 253t97.5 176t26.5 143.5q1 70 -19 125.5t-53 90.5t-78 58t-91 32t-95 9q-159 0 -327 -74l-35 80q190 80 377 80q79 0 151 -22t135 -66.5t100.5 -123t37.5 -181.5q0 -114 -53 -222.5t-197.5 -273.5t-429.5 -438l129 2h563v-88z" />
<glyph unicode="3" d="M940 391q0 -79 -32.5 -153t-90 -131.5t-143 -92t-185.5 -34.5q-97 0 -194 29.5t-168 68.5l27 84q66 -37 159 -66.5t181 -29.5q151 0 246.5 90.5t95.5 232.5q0 73 -29 127.5t-81.5 86.5t-119 47.5t-147.5 15.5h-68v88h62q147 0 235 88.5t88 216.5q0 130 -87 198t-226 68 q-157 0 -297 -74l-37 80q177 82 352 82q170 0 287 -97t117 -253q0 -66 -27 -128t-68 -105t-87.5 -72t-88.5 -39v-4q41 -5 83.5 -19.5t86.5 -41t78.5 -62.5t56 -88t21.5 -113z" />
<glyph unicode="4" d="M952 403h-174v-403h-98v403h-582v97l574 893h106v-893h174v-97zM190 500h490v751z" />
<glyph unicode="5" d="M831 467q0 173 -85.5 257.5t-241.5 84.5q-77 0 -155.5 -32.5t-115.5 -71.5l-88 36v652h686l-10 -90h-575v-429l-10 -88q125 115 294 115q83 0 155.5 -27.5t129.5 -80t90 -136.5t33 -190q0 -131 -56.5 -242t-162 -178t-236.5 -67q-182 0 -356 96l29 84q178 -94 327 -94 q158 0 253 110t95 291z" />
<glyph unicode="6" d="M594 1327q-98 0 -173 -46.5t-121.5 -132t-69.5 -200.5t-23 -258v-12q48 98 148 156.5t229 58.5q164 0 266 -118t102 -308q0 -135 -50.5 -245.5t-145.5 -176t-217 -65.5q-140 0 -237.5 90t-144 247.5t-46.5 372.5q0 147 26.5 268.5t72 205t108 140.5t133 83t147.5 26 q153 0 272 -49l-18 -84q-120 47 -258 47zM561 801q-144 0 -236.5 -75.5t-111.5 -178.5q20 -221 102 -350t224 -129q79 0 139 32t96 87.5t54 125t18 150.5q0 158 -74 248t-211 90z" />
<glyph unicode="7" d="M936 1303l-635 -1303h-100l630 1303h-700v90h805v-90z" />
<glyph unicode="8" d="M125 350q0 75 22.5 136t65.5 105t93.5 75.5t117.5 58.5q-48 23 -83 44t-71.5 52.5t-59.5 67t-37.5 85t-14.5 109.5q0 147 107 238.5t263 91.5q170 0 275.5 -92t105.5 -240q0 -67 -22.5 -123.5t-64.5 -99.5t-87 -74t-104 -59q56 -25 94.5 -45t82.5 -52.5t70.5 -68 t44 -87.5t17.5 -114q0 -158 -118 -268t-294 -110q-168 0 -285.5 108t-117.5 262zM840 358q0 54 -19.5 99t-41.5 73t-74 59.5t-80 44.5t-96 42q-25 11 -37 16q-140 -66 -203.5 -141.5t-63.5 -200.5q0 -131 95 -214t208 -83q58 0 113 20t100 57t72 96t27 132zM256 1081 q0 -40 9.5 -75.5t23 -61.5t40 -51.5t48 -42t59.5 -36t62.5 -30.5t68.5 -30q119 66 180.5 141.5t61.5 183.5q0 123 -79 191.5t-202 68.5q-119 0 -195.5 -69t-76.5 -189z" />
<glyph unicode="9" d="M477 66q378 0 385 634q-167 -184 -373 -184q-164 0 -271 119.5t-107 308.5q0 217 109 343t294 126q102 0 181 -38t138.5 -118.5t91 -215t31.5 -318.5q0 -197 -35 -342.5t-101 -232t-152.5 -127.5t-196.5 -41q-139 0 -301 75l18 84q76 -37 140 -55t149 -18zM514 606 q96 0 185.5 51.5t160.5 128.5q-17 539 -348 539q-147 0 -221 -107t-74 -272q0 -156 79 -248t218 -92z" />
<glyph unicode=":" horiz-adv-x="321" d="M115 0v201h92v-201h-92zM115 803v201h92v-201h-92z" />
<glyph unicode=";" horiz-adv-x="321" d="M115 803v201h92v-201h-92zM113 10v191h96v-201q0 -128 -20.5 -174t-75.5 -55v53q41 7 41 156v20z" />
<glyph unicode="&#x3c;" horiz-adv-x="819" d="M61 655l697 316v-107l-633 -278v-4l633 -260v-109l-697 291v151z" />
<glyph unicode="=" horiz-adv-x="907" d="M764 678h-621v92h621v-92zM764 379h-621v92h621v-92z" />
<glyph unicode="&#x3e;" horiz-adv-x="819" d="M61 971l697 -316v-151l-697 -291v109l633 260v4l-633 278v107z" />
<glyph unicode="?" horiz-adv-x="845" d="M774 1038q0 -70 -19.5 -129.5t-51 -101t-69.5 -78.5t-76 -70t-69.5 -67t-51 -78.5t-19.5 -95.5v-66h-92v99q0 50 19.5 94.5t50 79t68 68t75 69t68 74.5t50 91t19.5 111q0 76 -24 134t-66.5 92t-94 50.5t-112.5 16.5q-121 0 -277 -78l-30 80q174 80 313 80 q109 0 195.5 -40t140 -126.5t53.5 -208.5zM319 0v201h97v-201h-97z" />
<glyph unicode="@" horiz-adv-x="2048" d="M1184 -20l18 161q-128 -161 -305 -161q-44 0 -85.5 13.5t-83 46.5t-72 82.5t-49.5 127.5t-19 176q0 122 38 227.5t101.5 177t147.5 112t176 40.5q72 0 139 -35.5t106 -87.5l29 103h66l-115 -955q41 -20 113 -20q71 0 140 35.5t126.5 102t93 175t35.5 240.5 q0 332 -201.5 532.5t-533.5 200.5q-228 0 -406 -99.5t-277.5 -282.5t-99.5 -421q0 -326 185 -559h-93q-172 253 -172 559q0 129 30.5 246.5t86 213.5t134 174t174 131t207 81.5t231.5 28.5q177 0 328.5 -60t257 -165.5t165.5 -255t60 -324.5q0 -114 -29 -215t-77 -173.5 t-110 -125.5t-130 -79t-134 -26q-57 0 -112.5 17.5t-83.5 40.5zM922 57q139 0 290 162l68 569q-40 53 -106.5 85t-135.5 32q-151 0 -252.5 -135t-101.5 -344q0 -81 13.5 -145.5t36.5 -106t54 -68.5t64 -38t70 -11z" />
<glyph unicode="A" horiz-adv-x="1091" d="M240 375l-101 -375h-98l381 1382h283l346 -1382h-107l-92 375h-612zM627 1298h-133l-230 -831h565z" />
<glyph unicode="B" horiz-adv-x="1042" d="M971 379q0 -177 -129 -288t-320 -111q-209 0 -379 71v1331h328q203 0 312.5 -91t109.5 -234q0 -140 -65 -226.5t-164 -115.5v-4q132 -24 219.5 -114t87.5 -218zM788 1049q0 121 -82 184t-231 63h-229v-551h233q309 0 309 304zM864 373q0 132 -92.5 209t-294.5 77h-231 v-548q122 -50 276 -50q153 0 247.5 85t94.5 227z" />
<glyph unicode="C" horiz-adv-x="1157" d="M1094 121q-202 -141 -422 -141q-136 0 -241.5 53t-172.5 149.5t-101 227.5t-34 290q0 335 150.5 519t404.5 184q119 0 227 -29.5t178 -81.5l-43 -82q-61 48 -161 75.5t-203 27.5q-113 0 -199.5 -45t-140.5 -127t-81.5 -191.5t-27.5 -242.5q0 -290 115 -463.5t330 -173.5 q217 0 389 133z" />
<glyph unicode="D" horiz-adv-x="1208" d="M1085 705q0 -347 -140 -536t-388 -189q-207 0 -424 69v1333h354q116 0 206.5 -21t165.5 -70t124 -126.5t75.5 -192.5t26.5 -267zM979 709q0 316 -119.5 453.5t-382.5 137.5h-241v-1181q135 -51 323 -51q210 0 315 155.5t105 485.5z" />
<glyph unicode="E" horiz-adv-x="956" d="M864 0h-721v1382h721v-88h-618v-546h497l-20 -91h-477v-571h618v-86z" />
<glyph unicode="F" horiz-adv-x="935" d="M864 1294h-618v-585h497l-20 -91h-477v-618h-103v1382h721v-88z" />
<glyph unicode="G" horiz-adv-x="1234" d="M1122 653v-567q-137 -62 -234 -84t-206 -22q-173 0 -302 91t-197 256t-68 382q0 195 67 350.5t201.5 249.5t316.5 94q221 0 375 -88l-45 -84q-58 38 -146 60t-186 22q-91 0 -169 -31t-134.5 -86.5t-96.5 -130.5t-59.5 -164.5t-19.5 -187.5q0 -291 121.5 -468t347.5 -177 q176 0 332 69v428h-260l-4 88h366z" />
<glyph unicode="H" horiz-adv-x="1187" d="M1042 0h-108v651h-686v-651h-103v1382h103v-641h686v641h108v-1382z" />
<glyph unicode="I" horiz-adv-x="512" d="M307 0h-102v1382h102v-1382z" />
<glyph unicode="J" horiz-adv-x="722" d="M590 1382v-1089q0 -150 -81.5 -231.5t-199.5 -81.5q-55 0 -125.5 17t-122.5 42l17 90q118 -59 231 -59q79 0 127.5 56t48.5 183v1073h105z" />
<glyph unicode="K" horiz-adv-x="983" d="M973 0h-135l-545 621h-60l3 -183v-438h-103v1382h103v-516l-3 -176l568 692h119l-566 -688z" />
<glyph unicode="L" horiz-adv-x="925" d="M895 0h-721v1382h102v-1296h619v-86z" />
<glyph unicode="M" horiz-adv-x="1615" d="M1450 0h-104l-43 1296h-5l-112 -338l-330 -958h-113l-319 975l-107 321h-4l-45 -1296h-102l49 1382h188l404 -1261h2l420 1261h176z" />
<glyph unicode="N" horiz-adv-x="1167" d="M1022 0h-193l-575 1292h-10l2 -1292h-101v1382h181l579 -1296h13l-3 1296h107v-1382z" />
<glyph unicode="O" horiz-adv-x="1269" d="M1155 705q0 -143 -30 -269t-90.5 -230t-163.5 -165t-238 -61q-108 0 -195.5 37.5t-147 103.5t-99.5 158.5t-58 198.5t-18 227q0 113 17.5 213.5t57 190.5t98 154.5t147 102t198.5 37.5q113 0 202.5 -37.5t148.5 -101t98 -153.5t56 -190.5t17 -215.5zM1049 707 q0 93 -12 176.5t-42 165t-76 140t-119.5 94.5t-166.5 36q-91 0 -163.5 -36.5t-118.5 -95.5t-76.5 -140t-43 -165t-12.5 -175q0 -101 10.5 -187.5t39 -172t73.5 -145.5t119.5 -97t171.5 -37q95 0 169 36t119.5 95.5t75 144t41 173t11.5 190.5z" />
<glyph unicode="P" horiz-adv-x="1009" d="M958 981q0 -108 -37.5 -191t-104.5 -133t-152.5 -75t-186.5 -25h-233v-557h-101v1382h334q80 0 151.5 -15t132 -47t104.5 -78.5t68.5 -113t24.5 -147.5zM850 981q0 160 -104.5 237.5t-280.5 77.5h-221v-651h221q385 0 385 336z" />
<glyph unicode="Q" horiz-adv-x="1265" d="M1155 705q0 -124 -23 -237t-69.5 -210t-124 -166t-178.5 -96q94 -41 226.5 -66.5t232.5 -25.5v-99q-173 0 -310 45t-270 130h-6q-108 0 -195.5 37.5t-147 103.5t-99.5 158.5t-58 198.5t-18 227q0 113 17.5 213.5t57 190.5t98 154.5t147 102t198.5 37.5q113 0 202.5 -37.5 t148.5 -101t98 -153.5t56 -190.5t17 -215.5zM1049 707q0 93 -12 176.5t-42 165t-76 140t-119.5 94.5t-166.5 36q-91 0 -163.5 -36.5t-118.5 -95.5t-76.5 -140t-43 -165t-12.5 -175q0 -101 10.5 -187.5t39 -172t73.5 -145.5t119.5 -97t171.5 -37q95 0 169 36t119.5 95.5 t75 144t41 173t11.5 190.5z" />
<glyph unicode="R" horiz-adv-x="1052" d="M485 582h-241v-582h-101v1384h334q103 0 187.5 -21.5t151 -66t103.5 -121t37 -178.5q0 -281 -288 -387l323 -610h-121l-305 586q-50 -4 -80 -4zM848 991q0 161 -98.5 234t-284.5 73h-221v-626h219q182 0 283.5 81t101.5 238z" />
<glyph unicode="S" horiz-adv-x="1013" d="M926 362q0 -166 -115 -274t-315 -108q-104 0 -214 38t-194 99l45 84q67 -56 171 -94.5t202 -38.5q147 0 230 80t83 214q0 63 -24 113.5t-65 84t-94.5 61t-112 51l-117 47t-112 55t-94.5 70t-65 96.5t-24 131q0 140 111 236t302 96q121 0 220.5 -29.5t162.5 -70.5l-37 -82 q-48 33 -143 62.5t-199 29.5q-157 0 -235 -69.5t-78 -178.5q0 -57 24.5 -102.5t65.5 -77t94.5 -57.5t112.5 -49.5t117.5 -48t112 -57.5t94.5 -74t65.5 -101.5t24.5 -135.5z" />
<glyph unicode="T" horiz-adv-x="974" d="M913 1294h-393v-1294h-102v1294h-357v88h852v-88z" />
<glyph unicode="U" horiz-adv-x="1173" d="M1030 1382v-872q0 -112 -26.5 -206t-78.5 -167.5t-138 -115t-197 -41.5q-114 0 -201.5 41.5t-140 115t-79 167.5t-26.5 206v872h103v-854q0 -458 344 -458q336 0 336 458v854h104z" />
<glyph unicode="V" horiz-adv-x="1024" d="M1004 1382l-406 -1382h-178l-400 1382h105l379 -1296h14l379 1296h107z" />
<glyph unicode="W" horiz-adv-x="1685" d="M1665 1382l-346 -1382h-186l-293 1210l-316 -1210h-186l-318 1382h115l293 -1296h14l349 1296h110l322 -1296h14l322 1296h106z" />
<glyph unicode="X" horiz-adv-x="1013" d="M80 1382h125l325 -577l332 577h123l-407 -661l415 -721h-116l-363 621l-371 -621h-123l447 705z" />
<glyph unicode="Y" horiz-adv-x="931" d="M911 1382l-422 -813v-569h-102v571l-367 811h119l312 -694h8l346 694h106z" />
<glyph unicode="Z" horiz-adv-x="1024" d="M938 1290l-754 -1204h758v-86h-860v78l752 1216h-748v88h852v-92z" />
<glyph unicode="[" horiz-adv-x="552" d="M481 -244h-288v1805h288v-95h-190v-1618h190v-92z" />
<glyph unicode="\" horiz-adv-x="614" d="M510 -92l-500 1552h94l500 -1552h-94z" />
<glyph unicode="]" horiz-adv-x="552" d="M360 -244h-288v92h190v1618h-190v95h288v-1805z" />
<glyph unicode="^" horiz-adv-x="854" d="M735 1253l-47 -61l-260 178l-264 -178l-45 61l309 230z" />
<glyph unicode="_" horiz-adv-x="1460" d="M1305 0h-1149v82h1149v-82z" />
<glyph unicode="`" horiz-adv-x="1228" d="M827 1159l-428 164l29 78l424 -178z" />
<glyph unicode="a" horiz-adv-x="972" d="M829 0h-67l-23 135q-53 -66 -136 -110.5t-181 -44.5q-149 0 -233.5 87t-84.5 214q0 128 91 204t254 76h284v94q0 149 -60 218t-190 69q-158 0 -307 -68l-29 76q167 74 351 74q161 0 246 -88.5t85 -261.5v-674zM733 211v272h-272q-260 0 -260 -198q0 -105 60 -166.5 t181 -61.5q83 0 160 44t131 110z" />
<glyph unicode="b" horiz-adv-x="1036" d="M244 1024l-13 -137q130 137 312 137q381 0 381 -520q0 -261 -108.5 -392.5t-297.5 -131.5q-157 0 -293 122l-22 -102h-60v1413h101v-389zM244 817v-639q57 -56 129 -88.5t145 -32.5q155 0 229 107.5t74 339.5q0 216 -68.5 328t-222.5 112q-77 0 -155 -35.5t-131 -91.5z " />
<glyph unicode="c" horiz-adv-x="931" d="M831 150l23 -80q-145 -90 -324 -90q-91 0 -164.5 28.5t-132 88t-90.5 163t-32 242.5q0 249 117.5 385.5t297.5 136.5q84 0 171 -19.5t149 -58.5l-33 -76q-117 70 -287 70q-150 0 -234.5 -118t-84.5 -320q0 -224 84 -332.5t239 -108.5q165 0 301 89z" />
<glyph unicode="d" horiz-adv-x="1038" d="M838 0l-23 127q-50 -64 -133.5 -105.5t-167.5 -41.5q-184 0 -292.5 137t-108.5 389q0 150 44 264.5t139.5 184t231.5 69.5q155 0 283 -80l-6 162v307h100v-1413h-67zM805 205v659q-113 82 -275 82q-159 0 -237 -117.5t-78 -322.5q0 -98 16.5 -177.5t51.5 -141.5t94.5 -96 t140.5 -34q148 0 287 148z" />
<glyph unicode="e" horiz-adv-x="1026" d="M913 473h-702q0 -210 94 -312t254 -102q159 0 322 113l32 -74q-191 -118 -360 -118q-201 0 -320.5 136.5t-119.5 393.5q0 243 109 378.5t304 135.5q99 0 175 -39t121 -106.5t68 -152t23 -181.5v-72zM815 553q0 78 -15 145t-47.5 124.5t-92 90.5t-140.5 33 q-79 0 -140 -33.5t-97 -90t-54 -124.5t-18 -145h604z" />
<glyph unicode="f" horiz-adv-x="634" d="M696 1427l-8 -81q-56 18 -131 18q-116 0 -165.5 -66.5t-49.5 -207.5v-86h240v-82h-240v-922h-102v922h-168v82h168v94q0 171 77.5 260.5t231.5 89.5q67 0 147 -21z" />
<glyph unicode="g" horiz-adv-x="1034" d="M502 1024q14 0 72.5 -2.5t175 -8t233.5 -9.5v-62q-77 -13 -270 8q153 -109 153 -274q0 -86 -34 -153.5t-89 -106t-116 -57.5t-123 -19q-61 0 -131 25q-72 -12 -102.5 -33.5t-30.5 -55.5q0 -26 36.5 -41.5t95.5 -24.5t129.5 -18t141.5 -26.5t130 -45t95.5 -79t36.5 -123.5 q0 -99 -60 -176.5t-152 -116.5t-195 -39q-97 0 -183.5 34.5t-145 106t-58.5 164.5q0 99 70 166.5t177 79.5q-211 24 -211 139q0 50 44 83.5t114 39.5q-168 91 -168 277q0 74 25 135.5t64 100t88.5 64.5t96.5 37t91 11zM502 416q37 0 72 7t71 25.5t62.5 46.5t43.5 74.5 t17 106.5q0 63 -17.5 112.5t-44.5 79t-63.5 48t-70.5 25.5t-70 7t-70 -7t-70.5 -25.5t-63.5 -48t-44.5 -79t-17.5 -112.5q0 -60 17 -106.5t43.5 -74.5t62.5 -46.5t71 -25.5t72 -7zM805 -86q0 89 -72 137.5t-237 67.5q-135 -1 -210 -63.5t-75 -166.5q0 -68 43 -121.5 t108 -79.5t136 -26q135 0 221 64.5t86 187.5z" />
<glyph unicode="h" horiz-adv-x="993" d="M244 0h-101v1413h101v-428l-8 -102q141 141 311 141q334 0 334 -383v-641h-103v612q0 166 -57.5 248t-196.5 82q-143 0 -280 -137v-805z" />
<glyph unicode="i" horiz-adv-x="460" d="M317 0h-96v915l-108 21v68h204v-1004zM205 1268v125h112v-125h-112z" />
<glyph unicode="j" horiz-adv-x="512" d="M233 -12v927l-108 21v68h205v-1020q0 -125 -59 -200t-156 -75q-21 0 -41 3t-30.5 5.5t-30.5 8.5t-25 8l14 88q59 -19 102 -19q63 0 96 47t33 138zM217 1268v125h113v-125h-113z" />
<glyph unicode="k" horiz-adv-x="839" d="M842 0h-127l-426 510h-47v-510h-99v1413h99v-610l-4 -262l436 463h123l-426 -447z" />
<glyph unicode="l" horiz-adv-x="507" d="M367 -20q-104 0 -158.5 51t-54.5 145v1237h98v-1225q0 -64 29.5 -97t97.5 -34l67 -2v-63q-40 -12 -79 -12z" />
<glyph unicode="m" horiz-adv-x="1607" d="M870 0h-102v612q0 168 -55 249t-193 81q-83 0 -147.5 -37.5t-128.5 -101.5v-803h-101v1004h66l27 -123q143 143 307 143q211 0 286 -160q155 160 318 160q169 0 258.5 -97.5t89.5 -285.5v-641h-102v612q0 164 -64 247t-205 83t-272 -139q18 -71 18 -162v-641z" />
<glyph unicode="n" horiz-adv-x="1003" d="M881 0h-103v612q0 166 -57.5 248t-196.5 82q-141 0 -280 -139v-803h-101v1004h66l27 -121q141 141 313 141q167 0 249.5 -98t82.5 -285v-641z" />
<glyph unicode="o" horiz-adv-x="1040" d="M930 506q0 -251 -110.5 -388.5t-301.5 -137.5q-195 0 -301 135.5t-106 390.5q0 151 42 265t135.5 183.5t229.5 69.5q130 0 224 -67.5t141 -183.5t47 -267zM827 506q0 209 -76 324.5t-233 115.5q-158 0 -232.5 -116.5t-74.5 -323.5q0 -449 307 -449q163 0 236 114t73 335z " />
<glyph unicode="p" horiz-adv-x="1030" d="M209 1004l27 -121q138 141 305 141q195 0 286 -132t91 -388q0 -260 -108.5 -392t-297.5 -132q-158 0 -285 114l17 -121v-362h-101v1393h66zM244 809v-635q120 -117 268 -117q159 0 231 106.5t72 340.5q0 216 -68.5 327t-222.5 111q-78 0 -151 -37.5t-129 -95.5z" />
<glyph unicode="q" horiz-adv-x="1038" d="M805 205v659q-113 82 -275 82q-159 0 -237 -117.5t-78 -322.5q0 -98 16.5 -177.5t51.5 -141.5t94.5 -96t140.5 -34q148 0 287 148zM905 -389h-100v405l10 113q-51 -64 -134.5 -106.5t-166.5 -42.5q-184 0 -292.5 137t-108.5 389q0 111 26.5 204.5t77.5 164t131.5 110 t183.5 39.5q149 0 285 -90l21 70h67v-1393z" />
<glyph unicode="r" horiz-adv-x="675" d="M635 999l-12 -86q-47 19 -131 19q-127 0 -248 -129v-803h-101v1004h66l27 -123q116 137 266 137q37 0 70.5 -5t47.5 -9z" />
<glyph unicode="s" horiz-adv-x="825" d="M414 942q-106 0 -159.5 -45.5t-53.5 -128.5q0 -49 29 -85.5t75.5 -60t102.5 -45t112 -46.5t102.5 -57t75.5 -85t29 -123q0 -119 -88 -202.5t-238 -83.5q-160 0 -303 96l39 78q50 -37 123.5 -67t142.5 -30q106 0 166 55t60 150q0 49 -22.5 86.5t-59 60.5t-83 44.5 t-95.5 37.5t-95.5 41t-83 53.5t-59 76t-22.5 108.5q0 107 78 180.5t227 73.5q186 0 309 -74l-33 -76q-119 68 -276 68z" />
<glyph unicode="t" horiz-adv-x="733" d="M662 35q-24 -19 -84.5 -37t-116.5 -18q-47 0 -86 12t-74.5 40t-55.5 81.5t-20 128.5v688h-153v74h153v186l101 33v-219h307v-74h-307v-688q0 -96 34 -138.5t113 -42.5q41 0 88.5 15t75.5 30z" />
<glyph unicode="u" horiz-adv-x="1003" d="M870 0h-75l-15 111q-47 -49 -129.5 -90t-179.5 -41q-160 0 -249 101.5t-89 301.5v621h100v-603q0 -178 58 -256.5t194 -78.5q146 0 283 116v822h102v-1004z" />
<glyph unicode="v" horiz-adv-x="880" d="M850 1004l-336 -1004h-152l-331 1004h108l301 -941h4l299 941h107z" />
<glyph unicode="w" horiz-adv-x="1331" d="M1300 1004l-307 -1004h-151l-185 860l-243 -860h-152l-231 1004h108l201 -941h4l268 941h109l199 -941h4l270 941h106z" />
<glyph unicode="x" horiz-adv-x="819" d="M678 0l-287 459l-270 -459h-90l313 530l-287 474h115l240 -412l239 412h92l-284 -482l329 -522h-110z" />
<glyph unicode="y" horiz-adv-x="915" d="M444 -45l15 45h-62l-331 1004h108l303 -947l301 947h107l-367 -1098q-58 -172 -140.5 -244t-201.5 -72q-53 0 -108.5 21.5t-87.5 48.5l36 68h7q89 -62 157 -62q92 0 152.5 63.5t111.5 225.5z" />
<glyph unicode="z" horiz-adv-x="874" d="M786 926l-591 -856h598v-70h-711v59l604 873h-602v72h702v-78z" />
<glyph unicode="{" horiz-adv-x="593" d="M553 -117l-45 -90q-264 124 -264 383v320l-224 116v117l224 109v264q0 269 264 383l45 -92l-45 -23q-77 -36 -118.5 -122.5t-41.5 -182.5v-281l-219 -104v-14l219 -121v-332q0 -94 41.5 -179.5t116.5 -125.5z" />
<glyph unicode="|" horiz-adv-x="614" d="M362 -346h-110v1841h110v-1841z" />
<glyph unicode="}" horiz-adv-x="593" d="M573 612l-223 -116v-320q0 -259 -264 -383l-45 90l47 25q75 40 116.5 125.5t41.5 179.5v332l219 121v14l-219 104v281q2 95 -40 182t-120 123l-45 23l47 92q262 -114 262 -383v-264l223 -109v-117z" />
<glyph unicode="~" horiz-adv-x="978" d="M823 668q-23 -73 -77 -105t-134 -10l-237 65q-108 30 -156 -55l-63 29q69 154 235 106l234 -65q103 -27 137 59z" />
<glyph unicode="&#xa1;" horiz-adv-x="550" d="M225 139l21 473h59l21 -473v-551h-101v551zM324 1001v-200h-97v200h97z" />
<glyph unicode="&#xa3;" horiz-adv-x="921" d="M688 637h-303v-289l-4 -110l104 4h312v-86h-674v86h160v395h-160v78h160v157q0 170 80.5 260.5t234.5 90.5q91 0 201 -29l-19 -82q-78 25 -174 25q-117 0 -169 -66.5t-52 -206.5v-149h315z" />
<glyph unicode="&#xa5;" horiz-adv-x="927" d="M760 367h-271v-211h-102v211h-248v90h248v147h-248v90h197l-295 508h111l297 -508h10l321 508h107l-340 -508h213v-90h-271v-147h271v-90z" />
<glyph unicode="&#xa6;" horiz-adv-x="614" d="M362 643h-110v852h110v-852zM362 -344h-110v852h110v-852z" />
<glyph unicode="&#xa7;" horiz-adv-x="946" d="M770 575l-434 269q-87 53 -134.5 113t-47.5 153q0 107 78.5 180.5t230.5 73.5q183 0 309 -76l-33 -76q-122 70 -276 70q-106 0 -161.5 -45.5t-55.5 -128.5q0 -55 54 -107.5t131 -97.5t154 -92t131 -108t54 -128zM174 426l459 -262q160 -88 160 -252q0 -119 -90 -202 t-240 -83q-153 0 -299 94l39 80q43 -36 117 -65t145 -29q106 0 167.5 53.5t61.5 147.5q0 42 -22.5 79.5t-59 66t-83 57.5t-95.5 53.5t-95.5 53.5t-83 58.5t-59 68t-22.5 81.5zM756 391v-102l-557 340v102z" />
<glyph unicode="&#xa8;" horiz-adv-x="1054" d="M287 1192v201h96v-201h-96zM672 1192v201h96v-201h-96z" />
<glyph unicode="&#xa9;" horiz-adv-x="1245" d="M815 627q-97 -62 -199 -62q-115 0 -189.5 75.5t-74.5 225.5q0 154 73.5 228.5t190.5 74.5q107 0 187 -43l-17 -65q-76 37 -170 37q-88 0 -135 -51.5t-47 -182.5q0 -129 50 -179t132 -50q96 0 179 55zM1122 868q0 -102 -39.5 -194.5t-106.5 -159t-159.5 -106t-193.5 -39.5 q-136 0 -251 66.5t-182 181.5t-67 251t67 251t182 182t251 67q135 0 250 -67t182 -182t67 -251zM1044 868q0 175 -123 298.5t-298 123.5t-298.5 -123.5t-123.5 -298.5t123.5 -298.5t298.5 -123.5t298 123.5t123 298.5z" />
<glyph unicode="&#xaa;" horiz-adv-x="860" d="M737 614h-63l-25 129q-94 -149 -264 -149q-113 0 -186.5 70.5t-73.5 183.5q0 120 79 177.5t210 57.5h231v60q0 190 -205 190q-147 0 -260 -59l-30 76q138 63 299 63q136 0 212 -68t76 -188v-543zM645 819v189h-219q-104 0 -156.5 -37t-52.5 -119q0 -85 50 -132.5 t143 -47.5q65 0 126.5 39.5t108.5 107.5z" />
<glyph unicode="&#xab;" horiz-adv-x="823" d="M731 721l-217 -287l217 -309l-61 -51l-283 360l283 346zM436 723l-217 -289l217 -311l-61 -51l-283 362l283 348z" />
<glyph unicode="&#xad;" horiz-adv-x="917" d="M774 528h-631v78h631v-78z" />
<glyph unicode="&#xae;" horiz-adv-x="1245" d="M1122 639q0 -136 -67 -251t-182 -182t-250 -67q-136 0 -251 67t-182 182t-67 251t67 251t182 182t251 67q135 0 250 -67t182 -182t67 -251zM1044 639q0 175 -123 298.5t-298 123.5t-298.5 -123.5t-123.5 -298.5t123.5 -298.5t298.5 -123.5t298 123.5t123 298.5zM846 764 q0 -83 -45 -134t-117 -67l141 -231h-84l-129 225h-94v-225h-69v624h159q102 0 170 -48.5t68 -143.5zM768 762q0 75 -45 105t-137 30h-68v-283h70q180 0 180 148z" />
<glyph unicode="&#xaf;" horiz-adv-x="1024" d="M827 1190h-630v80h630v-80z" />
<glyph unicode="&#xb0;" horiz-adv-x="993" d="M213 1014q0 -120 82.5 -202.5t202.5 -82.5t202 82.5t82 202.5t-82 202t-202 82t-202.5 -82t-82.5 -202zM123 1014q0 157 108.5 264.5t266.5 107.5q157 0 264.5 -107.5t107.5 -264.5q0 -158 -107.5 -266.5t-264.5 -108.5q-158 0 -266.5 108.5t-108.5 266.5z" />
<glyph unicode="&#xb1;" horiz-adv-x="937" d="M795 676h-285v-301h-90v301h-277v84h277v291h90v-291h285v-84zM786 166h-634v82h634v-82z" />
<glyph unicode="&#xb2;" horiz-adv-x="819" d="M688 528h-557v84q266 220 362.5 338t96.5 211q0 84 -53 126t-146 42q-122 0 -248 -65l-32 75q152 74 290 74q124 0 205.5 -66.5t81.5 -166.5q0 -80 -41 -153t-136 -166.5t-290 -254.5h467v-78z" />
<glyph unicode="&#xb3;" horiz-adv-x="819" d="M705 770q0 -112 -93.5 -187t-228.5 -75q-72 0 -144 23t-124 57l43 74q42 -30 103.5 -51t125.5 -21q95 0 158 45t63 127q0 85 -62.5 124.5t-211.5 39.5l-8 78q134 0 187.5 47.5t53.5 138.5q0 67 -52 103t-148 36q-118 0 -205 -53l-33 74q122 63 248 63q135 0 211 -63.5 t76 -151.5q0 -97 -54 -156t-135 -69v-2q89 -5 159.5 -58t70.5 -143z" />
<glyph unicode="&#xb4;" horiz-adv-x="1228" d="M850 1323l-428 -164l-23 64l422 178z" />
<glyph unicode="&#xb6;" horiz-adv-x="1208" d="M600 -328v877h-14q-101 0 -187 25.5t-153.5 75.5t-105.5 133.5t-38 191.5q0 133 67 227t174 137t243 43h418v-1710h-101v1624h-305q-175 0 -281 -80.5t-106 -240.5q0 -336 387 -336h2v510h100v-1477h-100z" />
<glyph unicode="&#xb7;" horiz-adv-x="321" d="M113 803v201h96v-201h-96z" />
<glyph unicode="&#xb8;" horiz-adv-x="1024" d="M473 -123l10 27q102 0 160.5 -36t58.5 -95q0 -48 -27 -87.5t-69 -62.5t-84.5 -36t-81.5 -15v70q158 16 158 125q0 81 -125 110z" />
<glyph unicode="&#xb9;" horiz-adv-x="815" d="M393 1087l10 179q-29 -72 -112.5 -142t-179.5 -94v86q86 17 169.5 94.5t131.5 182.5h80v-789h229v-76h-584v76h256v483z" />
<glyph unicode="&#xba;" horiz-adv-x="1003" d="M860 1012q0 -92 -21.5 -165.5t-56 -119.5t-82.5 -76t-97 -42.5t-103 -12.5q-50 0 -97 11.5t-95.5 41t-84 75t-58 120t-22.5 168.5q0 204 98.5 302.5t258.5 98.5q72 0 134.5 -23t114 -69.5t81.5 -125.5t30 -183zM758 1012q0 90 -21 155.5t-58.5 100.5t-81.5 51t-97 16 q-54 0 -98.5 -17t-80.5 -53.5t-56.5 -100.5t-20.5 -152q0 -165 74.5 -251.5t181.5 -86.5q50 0 93 16.5t81.5 53.5t61 105.5t22.5 162.5z" />
<glyph unicode="&#xbb;" horiz-adv-x="827" d="M735 434l-282 -362l-62 51l217 311l-217 289l62 59zM436 434l-282 -360l-62 51l217 309l-217 287l62 59z" />
<glyph unicode="&#xbc;" horiz-adv-x="1871" d="M1282 1460l-500 -1552h-94l500 1552h94zM428 1053l10 178q-29 -72 -113 -142t-180 -94v86q86 17 169.5 94.5t131.5 182.5h80v-789h230v-75h-584v75h256v484zM1726 221h-114v-221h-92v221h-414v74l272 586l62 -23v-33l-240 -520h320v559h92v-559h114v-84z" />
<glyph unicode="&#xbd;" horiz-adv-x="1941" d="M1292 1460l-499 -1552h-95l500 1552h94zM428 1053l10 178q-29 -72 -113 -142t-180 -94v86q86 17 169.5 94.5t131.5 182.5h80v-789h230v-75h-584v75h256v484zM1796 0h-557v84q266 220 362.5 338t96.5 211q0 84 -53 126t-146 42q-120 0 -248 -66l-32 76q152 74 290 74 q124 0 205.5 -67t81.5 -167q0 -115 -91.5 -226.5t-375.5 -346.5h467v-78z" />
<glyph unicode="&#xbe;" horiz-adv-x="1898" d="M1303 1460l-564 -1552l-71 26l561 1551zM735 733q0 -112 -93 -187t-228 -75q-72 0 -144.5 23t-124.5 57l43 74q42 -30 104 -51t126 -21q95 0 158 45t63 127q0 85 -62.5 124.5t-211.5 39.5l-9 78q134 0 188 48t54 138q0 67 -52.5 103t-148.5 36q-117 0 -204 -53l-33 74 q122 63 248 63q135 0 210.5 -63.5t75.5 -151.5q0 -97 -53.5 -156t-134.5 -69v-2q89 -5 159 -58t70 -143zM1753 221h-115v-221h-92v221h-413v74l272 586l61 -23v-33l-239 -520h319v559h92v-559h115v-84z" />
<glyph unicode="&#xbf;" horiz-adv-x="808" d="M72 -37q0 70 19.5 129.5t51 101t69.5 78.5t76 70.5t69.5 67.5t51 78.5t19.5 95.5v65h92v-98q0 -50 -19.5 -94.5t-50 -79t-68 -68.5t-75 -69.5t-68 -74.5t-50 -91t-19.5 -111q0 -76 24 -134t66.5 -92t94 -50.5t112.5 -16.5q120 0 276 78l31 -80q-174 -80 -313 -80 q-109 0 -195.5 40t-140 126.5t-53.5 208.5zM526 1001v-200h-96v200h96z" />
<glyph unicode="&#xc0;" horiz-adv-x="1091" d="M240 375l-101 -375h-98l381 1382h283l346 -1382h-107l-92 375h-612zM627 1298h-133l-230 -831h565zM774 1481l-465 43l4 78l467 -60z" />
<glyph unicode="&#xc1;" horiz-adv-x="1071" d="M229 375l-100 -375h-98l381 1382h282l346 -1382h-106l-92 375h-613zM616 1298h-133l-229 -831h565zM786 1524l-464 -43l-7 61l467 60z" />
<glyph unicode="&#xc2;" horiz-adv-x="1091" d="M240 375l-101 -375h-98l381 1382h283l346 -1382h-107l-92 375h-612zM627 1298h-133l-230 -831h565zM844 1499l-31 -59l-268 147l-269 -147l-30 59l299 193z" />
<glyph unicode="&#xc3;" horiz-adv-x="1091" d="M240 375l-101 -375h-98l381 1382h283l346 -1382h-107l-92 375h-612zM627 1298h-133l-230 -831h565zM852 1624q-14 -78 -69 -113.5t-134 -7.5l-200 74q-100 39 -152 -53l-59 26q29 76 87 109.5t140 1.5l197 -74q94 -36 131 60z" />
<glyph unicode="&#xc4;" horiz-adv-x="1091" d="M240 375l-101 -375h-98l381 1382h283l346 -1382h-107l-92 375h-612zM627 1298h-133l-230 -831h565zM305 1479v200h96v-200h-96zM690 1479v200h96v-200h-96z" />
<glyph unicode="&#xc5;" horiz-adv-x="1091" d="M240 375l-101 -375h-98l381 1382h283l346 -1382h-107l-92 375h-612zM627 1298h-133l-230 -831h565zM393 1712q0 -64 43.5 -107.5t108.5 -43.5t108 43.5t43 107.5q0 65 -43.5 108.5t-107.5 43.5q-65 0 -108.5 -44t-43.5 -108zM319 1712q0 94 66 159.5t160 65.5 t159.5 -65.5t65.5 -159.5t-65.5 -159.5t-159.5 -65.5t-160 65.5t-66 159.5z" />
<glyph unicode="&#xc6;" horiz-adv-x="1505" d="M1413 0h-721v365h-434l-117 -365h-100l444 1382h928v-90h-618v-544h497l-20 -91h-477v-571h618v-86zM561 1292l-272 -835h403v835h-131z" />
<glyph unicode="&#xc7;" horiz-adv-x="1157" d="M1094 121q-202 -141 -422 -141q-136 0 -241.5 53t-172.5 149.5t-101 227.5t-34 290q0 335 150.5 519t404.5 184q119 0 227 -29.5t178 -81.5l-43 -82q-61 48 -161 75.5t-203 27.5q-113 0 -199.5 -45t-140.5 -127t-81.5 -191.5t-27.5 -242.5q0 -290 115 -463.5t330 -173.5 q217 0 389 133zM584 -123l10 27q102 0 160.5 -36t58.5 -95q0 -48 -27 -87.5t-69 -62.5t-84.5 -36t-81.5 -15v70q158 16 158 125q0 81 -125 110z" />
<glyph unicode="&#xc8;" horiz-adv-x="956" d="M864 0h-721v1382h721v-88h-618v-546h497l-20 -91h-477v-571h618v-86zM707 1481l-465 43l4 78l467 -60z" />
<glyph unicode="&#xc9;" horiz-adv-x="956" d="M864 0h-721v1382h721v-88h-618v-546h497l-20 -91h-477v-571h618v-86zM719 1524l-465 -43l-6 61l467 60z" />
<glyph unicode="&#xca;" horiz-adv-x="956" d="M864 0h-721v1382h721v-88h-618v-546h497l-20 -91h-477v-571h618v-86zM776 1499l-31 -59l-268 147l-268 -147l-31 59l299 193z" />
<glyph unicode="&#xcb;" horiz-adv-x="956" d="M864 0h-721v1382h721v-88h-618v-546h497l-20 -91h-477v-571h618v-86zM238 1479v200h96v-200h-96zM623 1479v200h96v-200h-96z" />
<glyph unicode="&#xcc;" horiz-adv-x="512" d="M307 0h-102v1382h102v-1382zM485 1481l-465 43l5 78l467 -60z" />
<glyph unicode="&#xcd;" horiz-adv-x="483" d="M293 0h-103v1382h103v-1382zM479 1524l-465 -43l-6 61l467 60z" />
<glyph unicode="&#xce;" horiz-adv-x="512" d="M307 0h-102v1382h102v-1382zM555 1499l-31 -59l-268 147l-268 -147l-31 59l299 193z" />
<glyph unicode="&#xcf;" horiz-adv-x="512" d="M307 0h-102v1382h102v-1382zM16 1479v200h97v-200h-97zM401 1479v200h97v-200h-97z" />
<glyph unicode="&#xd1;" horiz-adv-x="1228" d="M1053 0h-193l-575 1292h-11l2 -1292h-100v1382h180l580 -1296h12l-2 1296h107v-1382zM922 1624q-14 -78 -69 -113.5t-134 -7.5l-201 74q-99 38 -151 -53l-60 26q29 75 87.5 109t140.5 2l196 -74q94 -36 131 60z" />
<glyph unicode="&#xd2;" horiz-adv-x="1269" d="M1155 705q0 -143 -30 -269t-90.5 -230t-163.5 -165t-238 -61q-108 0 -195.5 37.5t-147 103.5t-99.5 158.5t-58 198.5t-18 227q0 113 17.5 213.5t57 190.5t98 154.5t147 102t198.5 37.5q113 0 202.5 -37.5t148.5 -101t98 -153.5t56 -190.5t17 -215.5zM1049 707 q0 93 -12 176.5t-42 165t-76 140t-119.5 94.5t-166.5 36q-91 0 -163.5 -36.5t-118.5 -95.5t-76.5 -140t-43 -165t-12.5 -175q0 -101 10.5 -187.5t39 -172t73.5 -145.5t119.5 -97t171.5 -37q95 0 169 36t119.5 95.5t75 144t41 173t11.5 190.5zM864 1481l-465 43l4 78l467 -60 z" />
<glyph unicode="&#xd3;" horiz-adv-x="1269" d="M1155 705q0 -143 -30 -269t-90.5 -230t-163.5 -165t-238 -61q-108 0 -195.5 37.5t-147 103.5t-99.5 158.5t-58 198.5t-18 227q0 113 17.5 213.5t57 190.5t98 154.5t147 102t198.5 37.5q113 0 202.5 -37.5t148.5 -101t98 -153.5t56 -190.5t17 -215.5zM1049 707 q0 93 -12 176.5t-42 165t-76 140t-119.5 94.5t-166.5 36q-91 0 -163.5 -36.5t-118.5 -95.5t-76.5 -140t-43 -165t-12.5 -175q0 -101 10.5 -187.5t39 -172t73.5 -145.5t119.5 -97t171.5 -37q95 0 169 36t119.5 95.5t75 144t41 173t11.5 190.5zM872 1524l-464 -43l-7 61 l467 60z" />
<glyph unicode="&#xd4;" horiz-adv-x="1269" d="M1155 705q0 -143 -30 -269t-90.5 -230t-163.5 -165t-238 -61q-108 0 -195.5 37.5t-147 103.5t-99.5 158.5t-58 198.5t-18 227q0 113 17.5 213.5t57 190.5t98 154.5t147 102t198.5 37.5q113 0 202.5 -37.5t148.5 -101t98 -153.5t56 -190.5t17 -215.5zM1049 707 q0 93 -12 176.5t-42 165t-76 140t-119.5 94.5t-166.5 36q-91 0 -163.5 -36.5t-118.5 -95.5t-76.5 -140t-43 -165t-12.5 -175q0 -101 10.5 -187.5t39 -172t73.5 -145.5t119.5 -97t171.5 -37q95 0 169 36t119.5 95.5t75 144t41 173t11.5 190.5zM934 1499l-31 -59l-268 147 l-268 -147l-31 59l299 193z" />
<glyph unicode="&#xd5;" horiz-adv-x="1269" d="M1155 705q0 -143 -30 -269t-90.5 -230t-163.5 -165t-238 -61q-108 0 -195.5 37.5t-147 103.5t-99.5 158.5t-58 198.5t-18 227q0 113 17.5 213.5t57 190.5t98 154.5t147 102t198.5 37.5q113 0 202.5 -37.5t148.5 -101t98 -153.5t56 -190.5t17 -215.5zM1049 707 q0 93 -12 176.5t-42 165t-76 140t-119.5 94.5t-166.5 36q-91 0 -163.5 -36.5t-118.5 -95.5t-76.5 -140t-43 -165t-12.5 -175q0 -101 10.5 -187.5t39 -172t73.5 -145.5t119.5 -97t171.5 -37q95 0 169 36t119.5 95.5t75 144t41 173t11.5 190.5zM942 1624q-14 -78 -69 -113.5 t-134 -7.5l-200 74q-100 39 -152 -53l-59 26q29 76 87 109.5t140 1.5l197 -74q94 -36 131 60z" />
<glyph unicode="&#xd6;" horiz-adv-x="1269" d="M1155 705q0 -143 -30 -269t-90.5 -230t-163.5 -165t-238 -61q-108 0 -195.5 37.5t-147 103.5t-99.5 158.5t-58 198.5t-18 227q0 113 17.5 213.5t57 190.5t98 154.5t147 102t198.5 37.5q113 0 202.5 -37.5t148.5 -101t98 -153.5t56 -190.5t17 -215.5zM1049 707 q0 93 -12 176.5t-42 165t-76 140t-119.5 94.5t-166.5 36q-91 0 -163.5 -36.5t-118.5 -95.5t-76.5 -140t-43 -165t-12.5 -175q0 -101 10.5 -187.5t39 -172t73.5 -145.5t119.5 -97t171.5 -37q95 0 169 36t119.5 95.5t75 144t41 173t11.5 190.5zM395 1479v200h97v-200h-97z M780 1479v200h97v-200h-97z" />
<glyph unicode="&#xd7;" horiz-adv-x="856" d="M680 344l-57 -55l-193 192l-197 -196l-59 59l197 197l-187 184l58 57l184 -184l188 188l60 -59l-189 -190z" />
<glyph unicode="&#xd9;" horiz-adv-x="1173" d="M1030 1382v-872q0 -112 -26.5 -206t-78.5 -167.5t-138 -115t-197 -41.5q-114 0 -201.5 41.5t-140 115t-79 167.5t-26.5 206v872h103v-854q0 -458 344 -458q336 0 336 458v854h104zM815 1481l-465 43l4 78l467 -60z" />
<glyph unicode="&#xda;" horiz-adv-x="1173" d="M1030 1382v-872q0 -112 -26.5 -206t-78.5 -167.5t-138 -115t-197 -41.5q-114 0 -201.5 41.5t-140 115t-79 167.5t-26.5 206v872h103v-854q0 -458 344 -458q336 0 336 458v854h104zM823 1524l-465 -43l-6 61l467 60z" />
<glyph unicode="&#xdb;" horiz-adv-x="1173" d="M1030 1382v-872q0 -112 -26.5 -206t-78.5 -167.5t-138 -115t-197 -41.5q-114 0 -201.5 41.5t-140 115t-79 167.5t-26.5 206v872h103v-854q0 -458 344 -458q336 0 336 458v854h104zM885 1499l-31 -59l-268 147l-269 -147l-30 59l299 193z" />
<glyph unicode="&#xdc;" horiz-adv-x="1173" d="M1030 1382v-872q0 -112 -26.5 -206t-78.5 -167.5t-138 -115t-197 -41.5q-114 0 -201.5 41.5t-140 115t-79 167.5t-26.5 206v872h103v-854q0 -458 344 -458q336 0 336 458v854h104zM346 1479v200h96v-200h-96zM731 1479v200h96v-200h-96z" />
<glyph unicode="&#xdd;" horiz-adv-x="931" d="M911 1382l-422 -813v-569h-102v571l-367 811h119l312 -694h8l346 694h106zM700 1524l-464 -43l-7 61l467 60z" />
<glyph unicode="&#xdf;" horiz-adv-x="1126" d="M924 1155q0 -52 -16.5 -93t-43 -67.5t-58 -49t-63.5 -42.5t-58.5 -41.5t-43 -53t-16.5 -71.5q0 -45 25.5 -77.5t66 -51.5t89.5 -36t98 -38.5t89.5 -51t66 -81.5t25.5 -122q0 -121 -89.5 -210t-237.5 -89q-160 0 -297 92v96q42 -37 134.5 -73t164.5 -36q105 0 166 59.5 t61 155.5q0 55 -25 95t-65 62.5t-88.5 41t-97.5 38t-89 46t-65 72.5t-25 110q0 49 16 88t41.5 64.5t56 47t61.5 42t56.5 43t41.5 56.5t16 77q0 89 -66 147t-163 58q-121 0 -185.5 -68t-64.5 -204v-1090h-102v922h-168v82h168v94q0 165 97 257.5t255 92.5q143 0 237.5 -82 t94.5 -211z" />
<glyph unicode="&#xe0;" horiz-adv-x="972" d="M829 0h-67l-23 135q-53 -66 -136 -110.5t-181 -44.5q-149 0 -233.5 87t-84.5 214q0 128 91 204t254 76h284v94q0 149 -60 218t-190 69q-158 0 -307 -68l-29 76q167 74 351 74q161 0 246 -88.5t85 -261.5v-674zM733 211v272h-272q-260 0 -260 -198q0 -105 60 -166.5 t181 -61.5q83 0 160 44t131 110zM688 1159l-428 164l29 78l424 -178z" />
<glyph unicode="&#xe1;" horiz-adv-x="972" d="M829 0h-67l-23 135q-53 -66 -136 -110.5t-181 -44.5q-149 0 -233.5 87t-84.5 214q0 128 91 204t254 76h284v94q0 149 -60 218t-190 69q-158 0 -307 -68l-29 76q167 74 351 74q161 0 246 -88.5t85 -261.5v-674zM733 211v272h-272q-260 0 -260 -198q0 -105 60 -166.5 t181 -61.5q83 0 160 44t131 110zM713 1323l-428 -164l-23 64l422 178z" />
<glyph unicode="&#xe2;" horiz-adv-x="972" d="M829 0h-67l-23 135q-53 -66 -136 -110.5t-181 -44.5q-149 0 -233.5 87t-84.5 214q0 128 91 204t254 76h284v94q0 149 -60 218t-190 69q-158 0 -307 -68l-29 76q167 74 351 74q161 0 246 -88.5t85 -261.5v-674zM733 211v272h-272q-260 0 -260 -198q0 -105 60 -166.5 t181 -61.5q83 0 160 44t131 110zM786 1221l-30 -60l-269 148l-268 -148l-31 60l299 192z" />
<glyph unicode="&#xe3;" horiz-adv-x="972" d="M829 0h-67l-23 135q-53 -66 -136 -110.5t-181 -44.5q-149 0 -233.5 87t-84.5 214q0 128 91 204t254 76h284v94q0 149 -60 218t-190 69q-158 0 -307 -68l-29 76q167 74 351 74q161 0 246 -88.5t85 -261.5v-674zM733 211v272h-272q-260 0 -260 -198q0 -105 60 -166.5 t181 -61.5q83 0 160 44t131 110zM795 1311q-14 -78 -69 -113.5t-134 -7.5l-201 74q-99 38 -151 -54l-60 27q29 75 87.5 109t140.5 2l196 -74q94 -36 131 59z" />
<glyph unicode="&#xe4;" horiz-adv-x="972" d="M829 0h-67l-23 135q-53 -66 -136 -110.5t-181 -44.5q-149 0 -233.5 87t-84.5 214q0 128 91 204t254 76h284v94q0 149 -60 218t-190 69q-158 0 -307 -68l-29 76q167 74 351 74q161 0 246 -88.5t85 -261.5v-674zM733 211v272h-272q-260 0 -260 -198q0 -105 60 -166.5 t181 -61.5q83 0 160 44t131 110zM246 1192v201h96v-201h-96zM631 1192v201h96v-201h-96z" />
<glyph unicode="&#xe5;" horiz-adv-x="972" d="M829 0h-67l-23 135q-53 -66 -136 -110.5t-181 -44.5q-149 0 -233.5 87t-84.5 214q0 128 91 204t254 76h284v94q0 149 -60 218t-190 69q-158 0 -307 -68l-29 76q167 74 351 74q161 0 246 -88.5t85 -261.5v-674zM733 211v272h-272q-260 0 -260 -198q0 -105 60 -166.5 t181 -61.5q83 0 160 44t131 110zM336 1323q0 -65 43.5 -108.5t107.5 -43.5q65 0 108.5 43.5t43.5 108.5t-43.5 108.5t-108.5 43.5q-64 0 -107.5 -43.5t-43.5 -108.5zM262 1323q0 94 65.5 159.5t159.5 65.5t160 -65.5t66 -159.5t-66 -159.5t-160 -65.5t-159.5 65.5 t-65.5 159.5z" />
<glyph unicode="&#xe6;" horiz-adv-x="1646" d="M797 203h-6q-48 -90 -150 -156.5t-221 -66.5q-148 0 -233 87.5t-85 213.5q0 127 90.5 201.5t253.5 74.5h287v98q0 149 -60.5 218t-191.5 69q-153 0 -307 -70l-29 78q167 74 353 74q237 0 307 -193q108 193 342 193q99 0 175 -39t121 -106.5t68 -152t23 -181.5v-70h-703 q0 -210 94.5 -313t254.5 -103q158 0 321 113l33 -74q-46 -28 -71 -42t-73.5 -35.5t-101.5 -31t-114 -9.5q-140 0 -239 60.5t-138 162.5zM733 229v250h-274q-260 0 -260 -194q0 -106 59 -167t182 -61q91 0 170 51t123 121zM1436 555q0 62 -9 116.5t-30.5 106t-54.5 88 t-84.5 58.5t-116.5 22q-64 0 -116.5 -22t-87.5 -59t-59.5 -87.5t-35.5 -106t-11 -116.5h605z" />
<glyph unicode="&#xe7;" horiz-adv-x="931" d="M831 150l23 -80q-145 -90 -324 -90q-91 0 -164.5 28.5t-132 88t-90.5 163t-32 242.5q0 249 117.5 385.5t297.5 136.5q84 0 171 -19.5t149 -58.5l-33 -76q-117 70 -287 70q-150 0 -234.5 -118t-84.5 -320q0 -224 84 -332.5t239 -108.5q165 0 301 89zM465 -123l10 27 q102 0 160.5 -36t58.5 -95q0 -48 -27 -87.5t-69 -62.5t-84.5 -36t-81.5 -15v70q158 16 158 125q0 81 -125 110z" />
<glyph unicode="&#xe8;" horiz-adv-x="1026" d="M913 473h-702q0 -210 94 -312t254 -102q159 0 322 113l32 -74q-191 -118 -360 -118q-201 0 -320.5 136.5t-119.5 393.5q0 243 109 378.5t304 135.5q99 0 175 -39t121 -106.5t68 -152t23 -181.5v-72zM815 553q0 78 -15 145t-47.5 124.5t-92 90.5t-140.5 33 q-79 0 -140 -33.5t-97 -90t-54 -124.5t-18 -145h604zM715 1159l-428 164l28 78l424 -178z" />
<glyph unicode="&#xe9;" horiz-adv-x="1026" d="M913 473h-702q0 -210 94 -312t254 -102q159 0 322 113l32 -74q-191 -118 -360 -118q-201 0 -320.5 136.5t-119.5 393.5q0 243 109 378.5t304 135.5q99 0 175 -39t121 -106.5t68 -152t23 -181.5v-72zM815 553q0 78 -15 145t-47.5 124.5t-92 90.5t-140.5 33 q-79 0 -140 -33.5t-97 -90t-54 -124.5t-18 -145h604zM739 1323l-428 -164l-22 64l422 178z" />
<glyph unicode="&#xea;" horiz-adv-x="1026" d="M913 473h-702q0 -210 94 -312t254 -102q159 0 322 113l32 -74q-191 -118 -360 -118q-201 0 -320.5 136.5t-119.5 393.5q0 243 109 378.5t304 135.5q99 0 175 -39t121 -106.5t68 -152t23 -181.5v-72zM815 553q0 78 -15 145t-47.5 124.5t-92 90.5t-140.5 33 q-79 0 -140 -33.5t-97 -90t-54 -124.5t-18 -145h604zM811 1221l-31 -60l-268 148l-268 -148l-31 60l299 192z" />
<glyph unicode="&#xeb;" horiz-adv-x="1026" d="M913 473h-702q0 -210 94 -312t254 -102q159 0 322 113l32 -74q-191 -118 -360 -118q-201 0 -320.5 136.5t-119.5 393.5q0 243 109 378.5t304 135.5q99 0 175 -39t121 -106.5t68 -152t23 -181.5v-72zM815 553q0 78 -15 145t-47.5 124.5t-92 90.5t-140.5 33 q-79 0 -140 -33.5t-97 -90t-54 -124.5t-18 -145h604zM272 1192v201h97v-201h-97zM657 1192v201h97v-201h-97z" />
<glyph unicode="&#xec;" horiz-adv-x="460" d="M317 0h-96v915l-108 21v68h204v-1004zM432 1159l-428 164l29 78l424 -178z" />
<glyph unicode="&#xed;" horiz-adv-x="460" d="M317 0h-96v915l-108 21v68h204v-1004zM455 1323l-428 -164l-23 64l422 178z" />
<glyph unicode="&#xee;" horiz-adv-x="460" d="M317 0h-96v915l-108 21v68h204v-1004zM528 1221l-30 -60l-269 148l-268 -148l-31 60l299 192z" />
<glyph unicode="&#xef;" horiz-adv-x="460" d="M317 0h-96v915l-108 21v68h204v-1004zM-10 1192v201h96v-201h-96zM375 1192v201h96v-201h-96z" />
<glyph unicode="&#xf1;" horiz-adv-x="1003" d="M881 0h-103v612q0 166 -57.5 248t-196.5 82q-141 0 -280 -139v-803h-101v1004h66l27 -121q141 141 313 141q167 0 249.5 -98t82.5 -285v-641zM809 1311q-14 -78 -69 -113.5t-134 -7.5l-200 74q-100 39 -152 -54l-59 27q29 76 87 109.5t140 1.5l196 -74q95 -36 132 59z " />
<glyph unicode="&#xf2;" horiz-adv-x="1044" d="M932 506q0 -251 -110.5 -388.5t-301.5 -137.5q-195 0 -301 135.5t-106 390.5q0 151 42 265t135.5 183.5t229.5 69.5q130 0 224 -67.5t141 -183.5t47 -267zM829 506q0 209 -76 324.5t-233 115.5q-158 0 -232.5 -116.5t-74.5 -323.5q0 -449 307 -449q163 0 236 114t73 335z M725 1159l-428 164l29 78l424 -178z" />
<glyph unicode="&#xf3;" horiz-adv-x="1044" d="M932 506q0 -251 -110.5 -388.5t-301.5 -137.5q-195 0 -301 135.5t-106 390.5q0 151 42 265t135.5 183.5t229.5 69.5q130 0 224 -67.5t141 -183.5t47 -267zM829 506q0 209 -76 324.5t-233 115.5q-158 0 -232.5 -116.5t-74.5 -323.5q0 -449 307 -449q163 0 236 114t73 335z M748 1323l-429 -164l-22 64l422 178z" />
<glyph unicode="&#xf4;" horiz-adv-x="1044" d="M932 506q0 -251 -110.5 -388.5t-301.5 -137.5q-195 0 -301 135.5t-106 390.5q0 151 42 265t135.5 183.5t229.5 69.5q130 0 224 -67.5t141 -183.5t47 -267zM829 506q0 209 -76 324.5t-233 115.5q-158 0 -232.5 -116.5t-74.5 -323.5q0 -449 307 -449q163 0 236 114t73 335z M821 1221l-30 -60l-269 148l-268 -148l-31 60l299 192z" />
<glyph unicode="&#xf5;" horiz-adv-x="1044" d="M932 506q0 -251 -110.5 -388.5t-301.5 -137.5q-195 0 -301 135.5t-106 390.5q0 151 42 265t135.5 183.5t229.5 69.5q130 0 224 -67.5t141 -183.5t47 -267zM829 506q0 209 -76 324.5t-233 115.5q-158 0 -232.5 -116.5t-74.5 -323.5q0 -449 307 -449q163 0 236 114t73 335z M829 1311q-14 -78 -68.5 -113.5t-133.5 -7.5l-201 74q-100 39 -152 -54l-59 27q29 76 87 109.5t140 1.5l197 -74q94 -36 131 59z" />
<glyph unicode="&#xf6;" horiz-adv-x="1044" d="M932 506q0 -251 -110.5 -388.5t-301.5 -137.5q-195 0 -301 135.5t-106 390.5q0 151 42 265t135.5 183.5t229.5 69.5q130 0 224 -67.5t141 -183.5t47 -267zM829 506q0 209 -76 324.5t-233 115.5q-158 0 -232.5 -116.5t-74.5 -323.5q0 -449 307 -449q163 0 236 114t73 335z M283 1192v201h96v-201h-96zM668 1192v201h96v-201h-96z" />
<glyph unicode="&#xf7;" horiz-adv-x="917" d="M410 41v201h96v-201h-96zM410 844v200h96v-200h-96zM774 518h-631v78h631v-78z" />
<glyph unicode="&#xf9;" horiz-adv-x="1003" d="M870 0h-75l-15 111q-47 -49 -129.5 -90t-179.5 -41q-160 0 -249 101.5t-89 301.5v621h100v-603q0 -178 58 -256.5t194 -78.5q146 0 283 116v822h102v-1004zM705 1159l-429 164l29 78l424 -178z" />
<glyph unicode="&#xfa;" horiz-adv-x="1003" d="M870 0h-75l-15 111q-47 -49 -129.5 -90t-179.5 -41q-160 0 -249 101.5t-89 301.5v621h100v-603q0 -178 58 -256.5t194 -78.5q146 0 283 116v822h102v-1004zM727 1323l-428 -164l-23 64l422 178z" />
<glyph unicode="&#xfb;" horiz-adv-x="1003" d="M870 0h-75l-15 111q-47 -49 -129.5 -90t-179.5 -41q-160 0 -249 101.5t-89 301.5v621h100v-603q0 -178 58 -256.5t194 -78.5q146 0 283 116v822h102v-1004zM801 1221l-31 -60l-268 148l-269 -148l-30 60l299 192z" />
<glyph unicode="&#xfc;" horiz-adv-x="1003" d="M870 0h-75l-15 111q-47 -49 -129.5 -90t-179.5 -41q-160 0 -249 101.5t-89 301.5v621h100v-603q0 -178 58 -256.5t194 -78.5q146 0 283 116v822h102v-1004zM262 1192v201h96v-201h-96zM647 1192v201h96v-201h-96z" />
<glyph unicode="&#xfd;" horiz-adv-x="915" d="M444 -45l15 45h-62l-331 1004h108l303 -947l301 947h107l-367 -1098q-58 -172 -140.5 -244t-201.5 -72q-53 0 -108.5 21.5t-87.5 48.5l36 68h7q89 -62 157 -62q92 0 152.5 63.5t111.5 225.5zM651 1323l-428 -164l-22 64l422 178z" />
<glyph unicode="&#xff;" horiz-adv-x="915" d="M444 -45l15 45h-62l-331 1004h108l303 -947l301 947h107l-367 -1098q-58 -172 -140.5 -244t-201.5 -72q-53 0 -108.5 21.5t-87.5 48.5l36 68h7q89 -62 157 -62q92 0 152.5 63.5t111.5 225.5zM184 1192v201h97v-201h-97zM569 1192v201h97v-201h-97z" />
<glyph unicode="&#x152;" horiz-adv-x="1857" d="M1765 0h-721v233q-136 -253 -411 -253q-108 0 -195 37.5t-146 103.5t-98.5 158.5t-57 198.5t-17.5 227q0 114 17 214t56 190t97 154.5t146 102t198 37.5q279 0 411 -229v208h721v-90h-618v-544h498l-21 -91h-477v-571h618v-86zM1040 707q0 94 -11 177t-40 164.5 t-73.5 140t-117 94.5t-165.5 36q-91 0 -163 -36.5t-117.5 -95.5t-75.5 -140t-42 -165t-12 -175q0 -639 410 -639q407 0 407 639z" />
<glyph unicode="&#x153;" horiz-adv-x="1744" d="M1632 473h-702q0 -210 94 -312t254 -102q158 0 321 113l33 -74q-191 -118 -360 -118q-136 0 -236 62t-153 185q-49 -121 -143 -184t-222 -63q-195 0 -301 135.5t-106 390.5q0 151 42 265t135.5 183.5t229.5 69.5q128 0 220.5 -64.5t140.5 -179.5q48 118 141.5 181 t224.5 63q99 0 175 -39t121 -106.5t68 -152t23 -181.5v-72zM827 506q0 209 -76 324.5t-233 115.5q-158 0 -232.5 -116.5t-74.5 -323.5q0 -449 307 -449q163 0 236 114t73 335zM1534 553q0 78 -15 145t-47.5 124.5t-92 90.5t-140.5 33q-79 0 -140 -33.5t-97 -90t-54 -124.5 t-18 -145h604z" />
<glyph unicode="&#x178;" horiz-adv-x="931" d="M911 1382l-422 -813v-569h-102v571l-367 811h119l312 -694h8l346 694h106zM225 1479v200h97v-200h-97zM610 1479v200h97v-200h-97z" />
<glyph unicode="&#x2c6;" horiz-adv-x="1024" d="M811 1221l-31 -60l-268 148l-268 -148l-31 60l299 192z" />
<glyph unicode="&#x2dc;" horiz-adv-x="1228" d="M922 1311q-14 -78 -69 -113.5t-134 -7.5l-201 74q-99 38 -151 -54l-60 27q29 75 87.5 109t140.5 2l196 -74q94 -36 131 59z" />
<glyph unicode="&#x2000;" horiz-adv-x="968" />
<glyph unicode="&#x2001;" horiz-adv-x="1937" />
<glyph unicode="&#x2002;" horiz-adv-x="968" />
<glyph unicode="&#x2003;" horiz-adv-x="1937" />
<glyph unicode="&#x2004;" horiz-adv-x="645" />
<glyph unicode="&#x2005;" horiz-adv-x="484" />
<glyph unicode="&#x2006;" horiz-adv-x="322" />
<glyph unicode="&#x2007;" horiz-adv-x="322" />
<glyph unicode="&#x2008;" horiz-adv-x="242" />
<glyph unicode="&#x2009;" horiz-adv-x="387" />
<glyph unicode="&#x200a;" horiz-adv-x="107" />
<glyph unicode="&#x2010;" horiz-adv-x="917" d="M774 528h-631v78h631v-78z" />
<glyph unicode="&#x2011;" horiz-adv-x="917" d="M774 528h-631v78h631v-78z" />
<glyph unicode="&#x2012;" horiz-adv-x="917" d="M774 528h-631v78h631v-78z" />
<glyph unicode="&#x2013;" horiz-adv-x="942" d="M786 528h-630v78h630v-78z" />
<glyph unicode="&#x2014;" horiz-adv-x="1579" d="M1423 526h-1267v80h1267v-80z" />
<glyph unicode="&#x2018;" horiz-adv-x="393" d="M193 877h-107q0 283 150 536l73 -14q-116 -223 -116 -522z" />
<glyph unicode="&#x2019;" horiz-adv-x="393" d="M201 1413h106q0 -285 -149 -536l-74 14q117 225 117 522z" />
<glyph unicode="&#x201a;" horiz-adv-x="393" d="M201 209h106q0 -286 -149 -537l-74 15q117 225 117 522z" />
<glyph unicode="&#x201c;" horiz-adv-x="614" d="M420 877h-107q0 312 133 536l74 -14q-100 -192 -100 -522zM199 877h-107q0 283 150 536l73 -14q-116 -223 -116 -522z" />
<glyph unicode="&#x201d;" horiz-adv-x="614" d="M195 1413h106q0 -312 -133 -536l-74 14q101 194 101 522zM416 1413h106q0 -285 -149 -536l-74 14q117 225 117 522z" />
<glyph unicode="&#x201e;" horiz-adv-x="614" d="M195 209h106q0 -313 -133 -537l-74 15q101 194 101 522zM416 209h106q0 -286 -149 -537l-74 15q117 225 117 522z" />
<glyph unicode="&#x2022;" horiz-adv-x="755" d="M418 377h-82q-54 276 0 510h82q58 -229 0 -510z" />
<glyph unicode="&#x2026;" horiz-adv-x="964" d="M113 0v201h96v-201h-96zM434 0v201h96v-201h-96zM756 0v201h96v-201h-96z" />
<glyph unicode="&#x202f;" horiz-adv-x="387" />
<glyph unicode="&#x2039;" horiz-adv-x="520" d="M377 74l-283 360l283 346l61 -59l-217 -287l217 -309z" />
<glyph unicode="&#x203a;" horiz-adv-x="520" d="M426 434l-283 -360l-61 51l217 309l-217 287l61 59z" />
<glyph unicode="&#x205f;" horiz-adv-x="484" />
<glyph unicode="&#x20ac;" d="M920 313l22 -77q-144 -89 -297 -89q-332 0 -387 381h-135v90h127q-2 23 -2 70q0 51 2 76h-127v90h139q18 95 57.5 167.5t92 115.5t111.5 64.5t122 21.5q162 0 287 -68l-25 -78q-65 33 -123 47.5t-139 14.5q-108 0 -181.5 -75t-101.5 -210h318l-12 -90h-318q-2 -25 -2 -76 q0 -47 2 -70h295l-10 -90h-277q22 -162 94.5 -231.5t192.5 -69.5q89 0 149.5 21.5t125.5 64.5z" />
<glyph unicode="&#x2122;" horiz-adv-x="1695" d="M1126 537l97 -426l-375 223l-375 -223l94 426l-325 286l432 41l174 400l172 -400l434 -41z" />
<glyph unicode="&#x25fc;" horiz-adv-x="1003" d="M0 1004h1004v-1004h-1004v1004z" />
<glyph unicode="&#xfb01;" horiz-adv-x="1032" d="M889 0h-96v922h-451v-922h-102v922h-168v82h168v94q0 171 76 260.5t229 89.5q63 0 143 -21v-81q-56 18 -133 18q-116 0 -164.5 -66t-48.5 -208v-86h547v-1004zM774 1268v125h113v-125h-113z" />
<glyph unicode="&#xfb02;" horiz-adv-x="1128" d="M696 1427l-8 -81q-56 18 -131 18q-116 0 -165.5 -66.5t-49.5 -207.5v-86h240v-82h-240v-922h-102v922h-168v82h168v94q0 171 77.5 260.5t231.5 89.5q67 0 147 -21zM991 -20q-105 0 -161 50.5t-56 143.5v1239h98v-1225q0 -64 29.5 -97t97.5 -34l68 -2v-65q-37 -10 -76 -10 z" />
<glyph unicode="&#xfb03;" horiz-adv-x="1536" d="M1393 0h-97v922h-450v-922h-103v922h-401v-922h-102v922h-168v82h168v94q0 171 77.5 260.5t231.5 89.5q67 0 147 -21l-8 -81q-56 18 -131 18q-116 0 -165.5 -66.5t-49.5 -207.5v-86h401v94q0 171 76.5 260.5t229.5 89.5q63 0 143 -21v-81q-56 18 -133 18 q-116 0 -164.5 -66t-48.5 -208v-86h547v-1004zM1278 1268v125h113v-125h-113z" />
<glyph unicode="&#xfb04;" horiz-adv-x="1632" d="M1200 1427l-8 -81q-56 18 -131 18q-116 0 -165.5 -66.5t-49.5 -207.5v-86h239v-82h-239v-922h-103v922h-401v-922h-102v922h-168v82h168v94q0 171 77.5 260.5t231.5 89.5q67 0 147 -21l-8 -81q-56 18 -131 18q-116 0 -165.5 -66.5t-49.5 -207.5v-86h401v94q0 170 78 260 t232 90q67 0 147 -21zM1495 -20q-105 0 -161 50.5t-56 143.5v1239h98v-1225q0 -64 29.5 -97t97.5 -34l68 -2v-65q-37 -10 -76 -10z" />
</font>
</defs>
</svg>
